Loading...
Error

Скачать Читающий мысли / The Listener (02x01-11 из 13) (Клемент Вирго, Кари Скогланд, Чарльз Бинами) [2011, фэнтези, драма, криминал, HDTVRip] [Jetvis Studio] торрент без регистрации

 
Статистика раздачи
Размер:  368 MB   |    Скачан:  226 раз
Сидов:  1  [  0 KB/s  ]  
 
Автор Сообщение

МихаНЕзатор

[] 

Информация о фильме
Название: Читающий мысли
Оригинальное название: The Listener
Год выхода: 2011
Жанр: фэнтези, драма, криминал
Режиссер: Клемент Вирго, Кари Скогланд, Чарльз Бинами
В ролях: Крейг Олейник, Лиза Маркос, Эннис Эсмер, Милен Дин-Робик

О фильме:
Тоби Логан 28-летний парамедик, обладающий способностью читать мысли людей. В один прекрасный день он решает использовать свой дар на благо других людей и помогать раскрывать преступления.

Официальный сайт

Страна: Канада
Продолжительность: ~45 минут серия
Перевод: Любительский (одноголосый закадровый) [Jetvis Studio]

Файл
Кодек: XviD / MP3
Качество: HDTVRip
Видео: XviD, 624x352 (1.77:1), 23.976 fps, ~1000 kbps, 0.200 bit/pixel
Звук: MP3, 44.1 kHz, 2 ch, 128 kbps

General
Format : AVI
Format/Info : Audio Video Interleave
File size : 349 MiB
Duration : 40mn 56s
Overall bit rate : 1 191 Kbps
Writing application : VirtualDubMod 1.5.4.1 (build 2178/release)
Writing library : VirtualDubMod build 2178/release

Video
ID : 0
Format : MPEG-4 Visual
Format profile : Advanced Simple@L5
Format settings, BVOP : Yes
Format settings, QPel : No
Format settings, GMC : No warppoints
Format settings, Matrix : Default (H.263)
Muxing mode : Packed bitstream
Codec ID : XVID
Codec ID/Hint : XviD
Duration : 40mn 56s
Bit rate : 1 053 Kbps
Width : 624 pixels
Height : 352 pixels
Display aspect ratio : 16:9
Frame rate : 23.976 fps
Color space : YUV
Chroma subsampling : 4:2:0
Bit depth : 8 bits
Scan type : Progressive
Compression mode : Lossy
Bits/(Pixel*Frame) : 0.200
Stream size : 308 MiB (88%)
Writing library : XviD 1.2.1 (UTC 2008-12-04)

Audio
ID : 1
Format : MPEG Audio
Format version : Version 1
Format profile : Layer 3
Codec ID : 55
Codec ID/Hint : MP3
Duration : 40mn 56s
Bit rate mode : Constant
Bit rate : 128 Kbps
Channel(s) : 2 channels
Sampling rate : 44.1 KHz
Compression mode : Lossy
Stream size : 37.5 MiB (11%)
Alignment : Split accross interleaves
Interleave, duration : 42 ms (1.00 video frame)
Interleave, preload duration : 500 ms



Скачать Читающий.мысли.The.Listener.(02x01-11.из.13).(Клемент.Вирго.Кари.Скогланд.Чарльз.Бинами).[2011.фэнтези.драма.криминал.HDTVRip].[Jetvis.Studio].torrent без регистрации
Золото ЗОЛОТАЯ РАЗДАЧА! СКАЧАННОЕ НЕ ЗАСЧИТЫВАЕТСЯ! Золото
Дата: Зарегистрирован   [ Тип: внутренний ] Как тут cкачать?
MAGNET ссылка
MAGNET ссылка


Скачать .torrent

15 KB

Статус: проверено DHT
Скачан: торрент - 226 раз, раздача полностью - 58 раз
Размер: 368 MB
Оценка:  - (Голосов: 0)
Поблагодарили: 1
Поделиться ссылкой на эту раздачу с друзьями:
В контактеFacebookОдноклассникиTwitterLivejournalМой МирLiveinternet
 

 

[] 

Топик был перенесен из форума Зарубежные сериалы в форум Читающий мысли / The Listener

Shara
 
Показать сообщения:    


Вы не можете начинать темы
Вы не можете отвечать на сообщения
Вы не можете редактировать свои сообщения
Вы не можете удалять свои сообщения
Вы не можете голосовать в опросах
Вы не можете прикреплять файлы к сообщениям
Вы можете скачивать файлы