Loading...
Error

Скачать Счастливчик Люк / Неуловимый Люк / Lucky Luke (Джеймс Хат) [2009, комедия, приключения, вестерн, HDRip] [Dub] [лицензия] торрент без регистрации

 
Статистика раздачи
Размер:  1,36 GB   |    Скачан:  228 раз
Сидов:  1  [  0 KB/s  ]  
 
Автор Сообщение

МихаНЕзатор

[] 

Неуловимый Люк / Lucky Luke


Страна: Франция, Аргентина
Жанр: комедия, приключения, вестерн
Год выпуска: 2009
Продолжительность: 01:43:16
Перевод: Профессиональный (дублированный) [лицензия]
Cубтитры: нет
Режиссер: Джеймс Хат / James Huth

В ролях: Мельвиль Пупо (Jesse James), Жан Дюжарден (Lucky Luke), Сильви Тестю (Calamity Jane), Майкл Юн (Billy The Kid), Александра Лэми (Belle), Даниэль Прево (Pat Poker), Жан-Франсуа Бальме (Le gouverneur), Бруно Саломон (Jolly Jumper, озвучка), Карлос Каспар (Hank), Claudio Brusca, Sergio Feldmann (Bandit), Рафаэль Лавин

Описание: Счастливчик Люк возвращается в свой родной город Дэйзи Таун, где в то время хозяйничают злодеи Пат Покер и Билли Зи Ки. Там он встретит свою любовь, певицу из местной таверны по имени Белль, а также столкнётся со своими давними врагами Кэлэмити Джэйн и Джессом Джеймсом.



Качество видео: HDRip (Исходник - BDRip 1080p)
Формат видео: AVI
Видео: XviD; 720x304 (2.35:1); 1560 Kbps; 24 fps; 0.322 bpp
Аудио: AC3; 48 kHz; 384 Kbps; CBR; 6 channels
General
Complete name : D:\Video\Movies\Comedy\Neulovimyj.Ljuk.2009.D.HDRip.EvVAnt.avi
Format : AVI
Format/Info : Audio Video Interleave
File size : 1.36 GiB
Duration : 1h 43mn
Overall bit rate : 1 890 Kbps
Movie name : Neulovimyj.Ljuk.2009.D.HDRip
Director : EvVAnt
Genre : Comedy
Writing application : VirtualDubMod 1.5.4.1 (build 2178/release)
Original source form/Name : Movie
Copyright : EvVAnt
Video
ID : 0
Format : MPEG-4 Visual
Format profile : Advanced Simple@L5
Format settings, BVOP : Yes
Format settings, QPel : No
Format settings, GMC : No warppoints
Format settings, Matrix : Custom
Codec ID : XVID
Codec ID/Hint : XviD
Duration : 1h 43mn
Bit rate : 1 497 Kbps
Width : 720 pixels
Height : 304 pixels
Display aspect ratio : 2.35:1
Frame rate : 24.000 fps
Resolution : 8 bits
Colorimetry : 4:2:0
Scan type : Progressive
Bits/(Pixel*Frame) : 0.285
Stream size : 1.08 GiB (79%)
Writing library : XviD 1.2.0.dev47 (UTC 2006-11-01)
Audio
ID : 1
Format : AC-3
Format/Info : Audio Coding 3
Format_Settings_ModeExtension : CM (complete main)
Codec ID : 2000
Duration : 1h 43mn
Bit rate mode : Constant
Bit rate : 384 Kbps
Channel(s) : 6 channels
Channel positions : Front: L C R, Side: L R, LFE
Sampling rate : 48.0 KHz
Video delay : 6ms
Stream size : 283 MiB (20%)
Alignment : Split accross interleaves
Interleave, duration : 42 ms (1.00 video frame)
Interleave, preload duration : 500 ms



Скачать Счастливчик.Люк.Неуловимый.Люк.Lucky.Luke.(Джеймс.Хат).[2009.комедия.приключения.вестерн.HDRip].[Dub].[лицензия].torrent без регистрации
Золото ЗОЛОТАЯ РАЗДАЧА! СКАЧАННОЕ НЕ ЗАСЧИТЫВАЕТСЯ! Золото
Дата: Зарегистрирован   [ Тип: внутренний ] Как тут cкачать?
MAGNET ссылка
MAGNET ссылка


Скачать .torrent

14 KB

Статус: проверено DHT
Скачан: торрент - 228 раз, раздача полностью - 12 раз
Размер: 1,36 GB
Оценка:  - (Голосов: 0)
Поблагодарили: 3
Поделиться ссылкой на эту раздачу с друзьями:
В контактеFacebookОдноклассникиTwitterLivejournalМой МирLiveinternet
 

 

МихаНЕзатор

[] 

Раздача обновлена, улучшено качество видео
 
Показать сообщения:    


Вы не можете начинать темы
Вы не можете отвечать на сообщения
Вы не можете редактировать свои сообщения
Вы не можете удалять свои сообщения
Вы не можете голосовать в опросах
Вы не можете прикреплять файлы к сообщениям
Вы можете скачивать файлы