Loading...
Error

Скачать Взрывная бригада / Brigada explosiva (Энрике Дави / Enrique Dawi) [1986, боевик, комедия, приключения, семейный, DVDRip] торрент без регистрации

 
Статистика раздачи
Размер:  1,45 GB   |    Скачан:  161 раз
Сидов:  1  [  0 KB/s  ]  
 
Автор Сообщение

Marsianka

[] 

Информация о фильме
Название: Взрывная бригада
Оригинальное название: Brigada explosiva
Год выхода: 1986
Жанр: боевик, комедия, приключения, семейный
Режиссер: Энрике Дави / Enrique Dawi
В ролях: Мория Касан /Moria Casan/, Эмилио Диси /Emilio Disi/, Беруго Карамбула /Berugo Carambula/, Джино Рени /Gino Renni/, Альберто Фернандез де Роса /Alberto Fernandez de Rosa/, Норман Эрлич /Norman Erlich/, Луис Педро Тони /Luis Pedro Toni/, Марио Кастилионе /Mario Castiglione/, Гильермо Франчелла /Guillermo Francella/, Ромуальдо Кирога /Romualdo Quiroga/, Патриция Солия /Patricia Solia/

О фильме:
Банда Кривого грабит банк, переодевшись во врачей скорой помощи. Но на их беду, в этом секторе дежурит бригада &laquoZ» самая легендарная полицейская команда. Почему &laquoZ»? Да потому, что хуже них никого нет


Страна: Аргентина
Продолжительность: 01:22:33
Перевод: Одноголосый. Озвучен ВПТО 'Видеофильм' в 1992 году. Синхронный перевод Бориса Крылова.

Файл
Кодек: XviD / AC3
Качество: DVDRip
Видео: XviD, 688x512 (1.34:1), 23.976 fps, ~2311 kbps, 0.27 bit/pixel
Звук: AC3, 48 kHz, 2/0 (L,R) ch, ~192 kbps

Sample
General
Complete name : /home/user/torrent/Brigada.explosiva_[Rutor.org].avi
Format : AVI
Format/Info : Audio Video Interleave
File size : 1.45 GiB
Duration : 1h 22mn
Overall bit rate : 2 513 Kbps
Writing application : VirtualDubMod 1.5.10.2 (build 2540/release)
Writing library : VirtualDubMod build 2540/release

Video
ID : 0
Format : MPEG-4 Visual
Format profile : Advanced Simple@L5
Format settings, BVOP : 1
Format settings, QPel : No
Format settings, GMC : No warppoints
Format settings, Matrix : Custom
Codec ID : XVID
Codec ID/Hint : XviD
Duration : 1h 22mn
Bit rate : 2 312 Kbps
Width : 688 pixels
Height : 512 pixels
Display aspect ratio : 4:3
Frame rate : 23.976 fps
Color space : YUV
Chroma subsampling : 4:2:0
Bit depth : 8 bits
Scan type : Progressive
Compression mode : Lossy
Bits/(Pixel*Frame) : 0.274
Stream size : 1.33 GiB (92%)
Writing library : XviD 1.2.1 (UTC 2008-12-04)

Audio
ID : 1
Format : AC-3
Format/Info : Audio Coding 3
Mode extension : CM (complete main)
Codec ID : 2000
Duration : 1h 22mn
Bit rate mode : Constant
Bit rate : 192 Kbps
Channel(s) : 2 channels
Channel positions : Front: L R
Sampling rate : 48.0 KHz
Bit depth : 16 bits
Compression mode : Lossy
Stream size : 113 MiB (8%)
Alignment : Split accross interleaves
Interleave, duration : 42 ms (1.00 video frame)
Interleave, preload duration : 500 ms



Скачать Взрывная.бригада.Brigada.explosiva.(Энрике.Дави.Enrique.Dawi).[1986.боевик.комедия.приключения.семейный.DVDRip].torrent без регистрации
Золото ЗОЛОТАЯ РАЗДАЧА! СКАЧАННОЕ НЕ ЗАСЧИТЫВАЕТСЯ! Золото
Дата: Зарегистрирован   [ Тип: внутренний ] Как тут cкачать?
MAGNET ссылка
MAGNET ссылка


Скачать .torrent

29 KB

Статус: проверено DHT
Скачан: торрент - 161 раз, раздача полностью - 20 раз
Размер: 1,45 GB
Оценка:  - (Голосов: 0)
Поблагодарили: 1
Поделиться ссылкой на эту раздачу с друзьями:
В контактеFacebookОдноклассникиTwitterLivejournalМой МирLiveinternet
 

 
Показать сообщения:    


Вы не можете начинать темы
Вы не можете отвечать на сообщения
Вы не можете редактировать свои сообщения
Вы не можете удалять свои сообщения
Вы не можете голосовать в опросах
Вы не можете прикреплять файлы к сообщениям
Вы можете скачивать файлы