Loading...
Error

Скачать Масло Лоренцо / Lorenzo's Oil (Джордж Миллер / George Miller) [1992, драма, DVDRip] торрент без регистрации

 
Статистика раздачи
Размер:  1,45 GB   |    Скачан:  171 раз
Сидов:  1  [  0 KB/s  ]  
 
Автор Сообщение

Marsianka

[] 

Информация о фильме
Название: Масло Лоренцо
Оригинальное название: Lorenzo's Oil
Год выхода: 1992
Жанр: драма
Режиссер: Джордж Миллер / George Miller
В ролях: Ник Нолти /Nick Nolte/, Сьюзэн Сэрэндон /Susan Sarandon/, Питер Устинов /Peter Ustinov/, Кэтлин Уилхойте /Kathleen Wilhoite/, Зэк О'Мэлли Гринберг /Zack O'Malley Greenburg/

О фильме:
Маленький Лоренцо Одоне поражен редкой, неизлечимой болезнью мозга. Впав на долгие годы в состояние, близкое к коматозному, Лоренцо не знает, какую долгую, изнуряющую борьбу с недугом ведут его родители Аугусто и Михаэла Одоне. Преодолевая трудности, медицинские заключения с их смертельными приговорами, предубеждение окружающих, они изобретают уникальное лекарство, позволяющее справиться с болезнью. Лекарство, получившее название «масло Лоренцо»


Страна: США
Продолжительность: 02:15:17
Перевод: Профессиональный (многоголосый, закадровый)

Файл
Кодек: XviD / AC3
Качество: DVDRip
Видео: XviD, 688x368 (1.870), 23.976 fps, 1 337 Kbps (0.220 bit/pixel)
Звук: AC-3, 48.0 KHz, 2 ch, 192 Kbps, CBR
General
Complete name : E:Lorenzo's.Oil_[Rutor.org].avi
Format : AVI
Format/Info : Audio Video Interleave
File size : 1.45 GiB
Duration : 2h 15mn
Overall bit rate : 1 538 Kbps
Writing application : VirtualDubMod 1.5.10.2 (build 2540/release)
Writing library : VirtualDubMod build 2540/release

Video
ID : 0
Format : MPEG-4 Visual
Format profile : Advanced Simple@L5
Format settings, BVOP : 1
Format settings, QPel : No
Format settings, GMC : No warppoints
Format settings, Matrix : Custom
Codec ID : XVID
Codec ID/Hint : XviD
Duration : 2h 15mn
Bit rate : 1 337 Kbps
Width : 688 pixels
Height : 368 pixels
Display aspect ratio : 1.870
Frame rate : 23.976 fps
Color space : YUV
Chroma subsampling : 4:2:0
Bit depth : 8 bits
Scan type : Progressive
Compression mode : Lossy
Bits/(Pixel*Frame) : 0.220
Stream size : 1.26 GiB (87%)
Writing library : XviD 1.2.1 (UTC 2008-12-04)

Audio
ID : 1
Format : AC-3
Format/Info : Audio Coding 3
Mode extension : CM (complete main)
Codec ID : 2000
Duration : 2h 15mn
Bit rate mode : Constant
Bit rate : 192 Kbps
Channel(s) : 2 channels
Channel positions : Front: L R
Sampling rate : 48.0 KHz
Bit depth : 16 bits
Compression mode : Lossy
Stream size : 186 MiB (12%)
Alignment : Aligned on interleaves
Interleave, duration : 42 ms (1.00 video frame)
Interleave, preload duration : 512 ms



Скачать Масло.Лоренцо.Lorenzo's.Oil.(Джордж.Миллер.George.Miller).[1992.драма.DVDRip].torrent без регистрации
Золото ЗОЛОТАЯ РАЗДАЧА! СКАЧАННОЕ НЕ ЗАСЧИТЫВАЕТСЯ! Золото
Дата: Зарегистрирован   [ Тип: внутренний ] Как тут cкачать?
MAGNET ссылка
MAGNET ссылка


Скачать .torrent

15 KB

Статус: проверено DHT
Скачан: торрент - 171 раз, раздача полностью - 25 раз
Размер: 1,45 GB
Оценка:  - (Голосов: 0)
Поблагодарили: 1
Поделиться ссылкой на эту раздачу с друзьями:
В контактеFacebookОдноклассникиTwitterLivejournalМой МирLiveinternet
 

 
Показать сообщения:    


Вы не можете начинать темы
Вы не можете отвечать на сообщения
Вы не можете редактировать свои сообщения
Вы не можете удалять свои сообщения
Вы не можете голосовать в опросах
Вы не можете прикреплять файлы к сообщениям
Вы можете скачивать файлы