Loading...
Error

Скачать Специалист / The Specialist (Луис Льоса / Luis Llosa) [1994, боевик, триллер, HDRip] торрент без регистрации

 
Статистика раздачи
Размер:  744 MB   |    Скачан:  168 раз

Полного источника не было: 25 минут

 
Автор Сообщение

Marsianka

[] 

Информация о фильме
Название: Специалист
Оригинальное название: The Specialist
Год выхода: 1994
Жанр: боевик, триллер
Режиссер: Луис Льоса / Luis Llosa
В ролях: Сильвестр Сталлоне /Sylvester Stallone/, Шэрон Стоун /Sharon Stone/, Джеймс Вудс /James Woods/, Род Стайгер /Rod Steiger/, Эрик Робертс /Eric Roberts/, Марио Эрнесто Санчес /Mario Ernesto Sanchez/

О фильме:
Шэрон Стоун в роли сексапильной красотки Мэй с роковым прошлым. Она поклялась отомстить гангстерам, убившим ее родителей, и уже выбрала способ, как с ними расправиться, и нашла человека, который это сделает: внешне невозмутимый бывший эксперт подрывник ЦРУ Рэй.

Майами, курорт для сверхбогачей, превращается в охотничью территорию, где Мэй заманивает и соблазняет убийц, а Рэй мастерски взрывает их, превращая в пепел.


Страна: США, Перу
Студия: Warner Bros. Pictures
Продолжительность: 01:49:58
Перевод: Профессиональный (полное дублирование)

Файл
Кодек: XviD / MP3
Качество: HDRip
Видео: XviD, 624x352 (16:9), 23.976 fps, 809 Kbps (0.154 bit/pixel)
Звук: MP3, 48.0 KHz, 2 ch, 128 Kbps, CBR
General
Complete name : E:The.Specialist_[Rutor.org].avi
Format : AVI
Format/Info : Audio Video Interleave
File size : 744 MiB
Duration : 1h 49mn
Overall bit rate : 946 Kbps
Writing application : VirtualDubMod 1.5.10.2 (build 2540/release)
Writing library : VirtualDubMod build 2540/release

Video
ID : 0
Format : MPEG-4 Visual
Format profile : Advanced Simple@L5
Format settings, BVOP : 1
Format settings, QPel : No
Format settings, GMC : No warppoints
Format settings, Matrix : Custom
Codec ID : XVID
Codec ID/Hint : XviD
Duration : 1h 49mn
Bit rate : 809 Kbps
Width : 624 pixels
Height : 352 pixels
Display aspect ratio : 16:9
Frame rate : 23.976 fps
Color space : YUV
Chroma subsampling : 4:2:0
Bit depth : 8 bits
Scan type : Progressive
Compression mode : Lossy
Bits/(Pixel*Frame) : 0.154
Stream size : 636 MiB (85%)
Writing library : XviD 1.2.1 (UTC 2008-12-04)

Audio
ID : 1
Format : MPEG Audio
Format version : Version 1
Format profile : Layer 3
Codec ID : 55
Codec ID/Hint : MP3
Duration : 1h 49mn
Bit rate mode : Constant
Bit rate : 128 Kbps
Channel(s) : 2 channels
Sampling rate : 48.0 KHz
Compression mode : Lossy
Stream size : 101 MiB (14%)
Alignment : Aligned on interleaves
Interleave, duration : 42 ms (1.00 video frame)
Interleave, preload duration : 504 ms
Writing library : LAME3.97
Encoding settings : -m s -V 4 -q 2 -lowpass 17 -b 128



Скачать Специалист.The.Specialist.(Луис.Льоса.Luis.Llosa).[1994.боевик.триллер.HDRip].torrent без регистрации
Золото ЗОЛОТАЯ РАЗДАЧА! СКАЧАННОЕ НЕ ЗАСЧИТЫВАЕТСЯ! Золото
Дата: Зарегистрирован   [ Тип: внутренний ] Как тут cкачать?
MAGNET ссылка
MAGNET ссылка


Скачать .torrent

15 KB

Статус: проверено DHT
Скачан: торрент - 168 раз, раздача полностью - 104 раз
Размер: 744 MB
Оценка:  - (Голосов: 0)
Поблагодарили: 1
Поделиться ссылкой на эту раздачу с друзьями:
В контактеFacebookОдноклассникиTwitterLivejournalМой МирLiveinternet
 

 
Показать сообщения:    


Вы не можете начинать темы
Вы не можете отвечать на сообщения
Вы не можете редактировать свои сообщения
Вы не можете удалять свои сообщения
Вы не можете голосовать в опросах
Вы не можете прикреплять файлы к сообщениям
Вы можете скачивать файлы