Loading...
Error

/ Justified / 2 / 01-13 (13) ( ) [2011 ., , , , WEB-DLRip] (Fox Crime)

 
7,03 GB   |    :  454
1  [  0 KB/s  ]  
 

onealoner

[] 

Justified


: 2011
: , ,
: ~ 48
: FX
: ( ) Fox Crime

:

: / Timothy Olyphant (" 4", "-", " "), / Natalie Zea (" ", ""), / Nick Searcy ("", ""), / Jacob Pitts, / Joelle Carter, / Walton Goggins, / William Ragsdale

: : , , . , . , , . , .

:
: WEB-DLRip
: avi
: XviD
: MP3
: 720 x 400, 23.976 fps, 1484 kbps, 0.215 bit/pixel
RUS: MP3, 48000Hz 128 kb/s, 2 channels
ENG: MP3, 48000Hz 128 kb/s, 2 channels

:
: Baggio
: Koss
: Baggio

:

General
Complete name : D:\Justified.s02.WEBDLRip.FoxCrime\Justified.s02e01.WEBDLRip.NewStudio.TV.avi
Format : AVI
Format/Info : Audio Video Interleave
File size : 600 MiB
Duration : 47mn 48s
Overall bit rate : 1 755 Kbps
Writing application : VirtualDubMod 1.5.10.2 (build 2540/release)
Writing library : VirtualDubMod build 2540/release
Video
Format : MPEG-4 Visual
Format profile : Streaming Video@L1
Format settings, BVOP : Yes
Format settings, QPel : No
Format settings, GMC : No warppoints
Format settings, Matrix : Default (MPEG)
Codec ID : XVID
Codec ID/Hint : XviD
Duration : 47mn 48s
Bit rate : 1 484 Kbps
Width : 720 pixels
Height : 400 pixels
Display aspect ratio : 16/9
Frame rate : 23.976 fps
Resolution : 24 bits
Colorimetry : 4:2:0
Scan type : Progressive
Bits/(Pixel*Frame) : 0.215
Stream size : 507 MiB (85%)
Writing library : XviD 64
Audio #1
Format : MPEG Audio
Format version : Version 1
Format profile : Layer 3
Codec ID : 55
Codec ID/Hint : MP3
Duration : 47mn 48s
Bit rate mode : Constant
Bit rate : 128 Kbps
Channel(s) : 2 channels
Sampling rate : 48.0 KHz
Resolution : 16 bits
Stream size : 43.8 MiB (7%)
Alignment : Aligned on interleaves
Interleave, duration : 42 ms (1.00 video frame)
Interleave, preload duration : 504 ms
Audio #2
Format : MPEG Audio
Format version : Version 1
Format profile : Layer 3
Codec ID : 55
Codec ID/Hint : MP3
Duration : 47mn 48s
Bit rate mode : Variable
Bit rate : 125 Kbps
Nominal bit rate : 128 Kbps
Channel(s) : 2 channels
Sampling rate : 48.0 KHz
Resolution : 16 bits
Stream size : 42.9 MiB (7%)
Alignment : Aligned on interleaves
Interleave, duration : 24 ms (0.58 video frame)
Interleave, preload duration : 147 ms
Writing library : LAME3.90.
Encoding settings : ABR
! ; . , :
(1) ,
(2) ( ),
(3) , .
() ( - ), . , !
E , , . , , .



.Justified.2..01-13..(13).(.).[2011.....WEB-DLRip].(Fox.Crime).torrent
  ! ! 
:   [ : ] c?
MAGNET
MAGNET


.torrent

37 KB

: DHT
: - 454 , - 753
: 7,03 GB
5 (: 1)
: 2
:
 FacebookTwitterLivejournal Liveinternet
 

 
: