Loading...
Error

Скачать Водитель / Поединок / The Driver (Уолтер Хилл /Walter Hil) [1978, Криминал, Триллер, Драма, HDTVRip] торрент без регистрации

 
Статистика раздачи
Размер:  751 MB   |    Скачан:  146 раз
Сидов:  1  [  0 KB/s  ]  
 
Автор Сообщение

Marsianka

[] 

"A Game ... A Challenge ... A Chase to the Death!"
______________________________________________________________________

Информация о фильме:

Название: Водитель / Поединок
Оригинальное название: The Driver
Год выхода: 1978
Жанр: Криминал, Триллер, Драма
______________________________________________________________________

Режиссер: Уолтер Хилл /Walter Hill/
Сценарист: Уолтер Хилл /Walter Hill/
Оператор: Филип Х. Латроп /Philip H. Lathrop/
Композитор: Майкл Смолл /Michael Small/
______________________________________________________________________

В ролях: Райан О'Нил /Ryan O'Neal/, Брюс Дерн /Bruce Dern/, Изабель Аджани /Isabelle Adjani/, Рони Блэйкли /Ronee Blakely/, Мэтт Кларк /Matt Clark/, Феличе Орланди /Felice Orlandi/ и другие...
______________________________________________________________________

Описание: Неприятности аса водителя и угонщика автомобилей начинаются в тот момент, когда он становится соучастником ограбления банка. Водитель в бегах ведет настоящую дуэль с беспощадным полицейским, расставляющим ловушки на пути беглеца.
Знакомство с прекрасной, но не предсказуемой в поступках женщиной азартным игроком, которую во всей этой истории привлекает не результат, а участие, усложняет жизнь водителя.
Водитель-ас (на мой взгляд одна из лучших ролей О Нила), увозящий на своей машине гангстеров после ограбления от преследующих их полицейских, ведет настоящую дуэль с весьма неприятным полицейским (Дерн). Дерн хочет поймать профессионала во что бы то ни стало, не гнушаясь никакими средствами. Потрясающие сцены автомобильных погонь. Мне особенно понравилась сцена, когда О Нил по частям разбивает машину, чтобы продемонстрировать клиентам свои способности. Сделана картина очень резко и мощно. (Иванов М.)

* В фильме не упоминаются имена ни одного из персонажей.
* Райан О'Нил произносит в течение фильма всего 350 слов.
______________________________________________________________________

Страна:
Выпущено: EMI Films / Twentieth Century Fox Film Corporation
Продолжительность: 01:29:20
Перевод: Профессиональный, многоголосый, закадровый /Нева-1/
______________________________________________________________________

Format : AVI
Format/Info : Audio Video Interleave
File size : 751 MiB
Duration : 1h 29mn
Overall bit rate : 1 176 Kbps
Writing application : VirtualDubMod 1.5.10.2 (build 2540/release)

Video
ID : 0
Format : MPEG-4 Visual
Format profile : Advanced Simple@L5
Format settings, BVOP : Yes
Format settings, QPel : No
Format settings, GMC : No warppoints
Format settings, Matrix : Default (MPEG)
Codec ID : XVID
Codec ID/Hint : XviD
Duration : 1h 29mn
Bit rate : 1 039 Kbps
Width : 688 pixels
Height : 384 pixels
Display aspect ratio : 16:9
Frame rate : 23.976 fps
Color space : YUV
Chroma subsampling : 4:2:0
Bit depth : 8 bits
Scan type : Progressive
Bits/(Pixel*Frame) : 0.164
Stream size : 664 MiB (88%)
Writing library : XviD 1.2.1 (UTC 2008-12-04)

Audio
ID : 1
Format : MPEG Audio
Format version : Version 1
Format profile : Layer 3
Codec ID : 55
Codec ID/Hint : MP3
Duration : 1h 29mn
Bit rate mode : Constant
Bit rate : 128 Kbps
Channel(s) : 2 channels
Sampling rate : 48.0 KHz
Stream size : 81.8 MiB (11%)
Alignment : Aligned on interleaves
Interleave, duration : 42 ms (1.00 video frame)
Interleave, preload duration : 504 ms
Writing library : LAME3.98r
Encoding settings : -m s -V 4 -q 2 -lowpass 17 -b 128
______________________________________________________________________


______________________________________________________________________

Качество: HDTVRip /Исходник HDTVRip 720p/
Формат: AVI
Видео кодек: XviD
Аудио кодек: MP3
Видео: 688x384 (1.79:1), 23.976 fps, XviD build 50 ~1038 kbps avg, 0.16 bit/pixel
Аудио: 48 kHz, MPEG Layer 3, 2 ch, ~128.00 kbps avg
Субтитры: Нет
Навигация по главам: Нет
______________________________________________________________________



Скачать Водитель.Поединок.The.Driver.(Уолтер.Хилл.Walter.Hil).[1978.Криминал.Триллер.Драма.HDTVRip].torrent без регистрации
Золото ЗОЛОТАЯ РАЗДАЧА! СКАЧАННОЕ НЕ ЗАСЧИТЫВАЕТСЯ! Золото
Дата: Зарегистрирован   [ Тип: внутренний ] Как тут cкачать?
MAGNET ссылка
MAGNET ссылка


Скачать .torrent

15 KB

Статус: проверено DHT
Скачан: торрент - 146 раз, раздача полностью - 7 раз
Размер: 751 MB
Оценка:  - (Голосов: 0)
Поблагодарили: 1
Поделиться ссылкой на эту раздачу с друзьями:
В контактеFacebookОдноклассникиTwitterLivejournalМой МирLiveinternet
 

 
Показать сообщения:    


Вы не можете начинать темы
Вы не можете отвечать на сообщения
Вы не можете редактировать свои сообщения
Вы не можете удалять свои сообщения
Вы не можете голосовать в опросах
Вы не можете прикреплять файлы к сообщениям
Вы можете скачивать файлы