Loading...
Error

Скачать Месть пернатого змея / La vengeance du serpent ђ plumes (Жерар Ури/G™rard Oury) [1984, Классика европейского кино, комедия, приключения, DVDRip] [AVC] [Burn] торрент без регистрации

 
Статистика раздачи
Размер:  1,86 GB   |    Скачан:  155 раз
Сидов:  1  [  0 KB/s  ]  
 
Автор Сообщение

Marsianka

[] 

Название: Месть пернатого змея
Оригинальное название: La vengeance du serpent а plumes
Год выпуска: 1984
Страна: Франция, Мексика
Жанр: Классика европейского кино, комедия, приключения
Режиссер: Жерар Ури/G™rard Oury
В ролях: Колюш, Марушка Детмерс, Жозиан Баласко, Луис Режо, Гед Марлон, Доминик Фрот.
Продолжительность: 1:45:01
Перевод: Профессиональный (многоголосый, закадровый)

Описание: Лулу (бесподобный Колюш) получает в наследство квартиру. Но там живут две милашки, промышляющиетерроризмом. Они специализируются на убийстве высокопоставленных политических деятелей. Бедолага Лулу не в силах разоблачить профессионалок, но решается их преследовать. А они направились в Мексику, где мирного француза принимают за террориста. Обхохочешься! Хотя Лулу не до смеха. Если бы не друг его Альваро и склонность к фантастическим трюкам выдающегося комика, очаровательные девицы-подрывницы улизнули бы...


x264 [info]: frame I:1003 Avg QP:18.40 size: 40157
x264 [info]: frame P:44582 Avg QP:20.69 size: 14301
x264 [info]: frame B:104875 Avg QP:22.93 size: 5818

General
Unique ID : 194940283868173747733482368130006473547 (0x92A8220CBD990F5588DA07EE43355B4B)
Complete name : D:РазвлеченияВидеоMest.pernatogo.zmey.1984.x264.DVDRip-AVC.BurnMest.pernatogo.zmey.1984.x264.DVDRip-AVC.Burn.mkv
Format : Matroska
Format version : Version 2
File size : 1.53 GiB
Duration : 1h 44mn
Overall bit rate : 2 092 Kbps
Encoded date : UTC 2011-08-12 03:24:09
Writing application : mkvmerge v4.9.1 ('Ich will') сборка от Jul 11 2011 23:53:15
Writing library : libebml v1.2.1 + libmatroska v1.1.1

Video
ID : 1
Format : AVC
Format/Info : Advanced Video Codec
Format profile : High@L4.1
Format settings, CABAC : Yes
Format settings, ReFrames : 8 frames
Codec ID : V_MPEG4/ISO/AVC
Duration : 1h 44mn
Bit rate : 1 642 Kbps
Width : 720 pixels
Height : 320 pixels
Display aspect ratio : 2.25:1
Frame rate : 23.976 fps
Color space : YUV
Chroma subsampling : 4:2:0
Bit depth : 8 bits
Scan type : Progressive
Bits/(Pixel*Frame) : 0.297
Stream size : 1.17 GiB (77%)
Writing library : x264 core 116 r2044 392e762
Encoding settings : cabac=1 / ref=8 / deblock=0:0:0 / analyse=0x3:0 / me=esa / subme=8 / psy=1 / psy_rd=1.00:0.00 / mixed_ref=1 / me_range=24 / chroma_me=1 / trellis=2 / 8x8dct=1 / cqm=0 / deadzone=21,11 / fast_pskip=1 / chroma_qp_offset=-2 / threads=6 / sliced_threads=0 / nr=0 / decimate=1 / interlaced=0 / bluray_compat=0 / constrained_intra=0 / bframes=8 / b_pyramid=2 / b_adapt=2 / b_bias=0 / direct=3 / weightb=1 / open_gop=0 / weightp=2 / keyint=250 / keyint_min=23 / scenecut=40 / intra_refresh=0 / rc=2pass / mbtree=0 / bitrate=1642 / ratetol=1.0 / qcomp=1.00 / qpmin=0 / qpmax=69 / qpstep=4 / cplxblur=20.0 / qblur=0.5 / ip_ratio=1.40 / pb_ratio=1.30 / aq=1:1.00

Audio
ID : 2
Format : AC-3
Format/Info : Audio Coding 3
Mode extension : CM (complete main)
Codec ID : A_AC3
Duration : 1h 44mn
Bit rate mode : Constant
Bit rate : 448 Kbps
Channel(s) : 6 channels
Channel positions : Front: L C R, Side: L R, LFE
Sampling rate : 48.0 KHz
Bit depth : 16 bits
Compression mode : Lossy
Stream size : 335 MiB (21%)
Автор рипа: Burn

Качество: DVDRip-AVC
Формат: MKV
Видео: MPEG4 Video (H264), 720x320, 23.98fps, 1642 Kbps
Аудио #1: Русский Dolby AC3, 48000Hz, 6ch, 448 kbps
Аудио #2: Французский Dolby AC3, 48000Hz, 6ch, 448 kbps (отдельным файлом)
Размер: 1.52 Гб Гб
Скачать: Сэмпл



Скачать Месть.пернатого.змея.La.vengeance.du.serpent.ђ.plumes.(Жерар.Ури.G™rard.Oury).[1984.Классика.европейского.кино.комедия.приключения.DVDRip].[AVC].[Burn].torrent без регистрации
Золото ЗОЛОТАЯ РАЗДАЧА! СКАЧАННОЕ НЕ ЗАСЧИТЫВАЕТСЯ! Золото
Дата: Зарегистрирован   [ Тип: внутренний ] Как тут cкачать?
MAGNET ссылка
MAGNET ссылка


Скачать .torrent

19 KB

Статус: проверено DHT
Скачан: торрент - 155 раз, раздача полностью - 10 раз
Размер: 1,86 GB
Оценка:  - (Голосов: 0)
Поблагодарили: 2
Поделиться ссылкой на эту раздачу с друзьями:
В контактеFacebookОдноклассникиTwitterLivejournalМой МирLiveinternet
 

 
Показать сообщения:    


Вы не можете начинать темы
Вы не можете отвечать на сообщения
Вы не можете редактировать свои сообщения
Вы не можете удалять свои сообщения
Вы не можете голосовать в опросах
Вы не можете прикреплять файлы к сообщениям
Вы можете скачивать файлы