Loading...
Error

Скачать Закрытые пространства (Игорь Ворскла и Амурбек Гобашиев) [2008 г., Артхаус, Комедия, Драма, DVDRip] торрент без регистрации

 
Статистика раздачи
Размер:  737 MB   |    Скачан:  160 раз
Сидов:  1  [  0 KB/s  ]  
 
Автор Сообщение

ПАРАДОКС

[] 

Закрытые пространства

Год выпуска: 2008
Выпущено: Россия
Жанр: Артхаус, Комедия, Драма
Продолжительность: 01:30:39
Перевод: Не требуется

Режиссер: Игорь Ворскла и Амурбек Гобашиев
Сценарист: Игорь Ворскла
Оператор: Руслан Герасименков
Композиторы: Леонид Федоров, Владимир Волков

В ролях: Леонид Бичевин /Веня/, Мария Машкова /Вика/, Олег Макаров /Ростик/, Александр Ильин /Лёня/, Анатолий Узденский /Арнольд/, Нелли Уварова /Тома/, Александр Скляр /Врач/, Елена Шевченко /секретарь/ и другие...

Описание: Молодая девушка Вика привозит по заказу пиццу в квартиру на мансардном этаже. Молодой человек расплачивается за заказ, после чего девушка обнаруживает, что дверь заперта. Парень объявляет о планах сексуального насилия в отношении пленницы и тут же начинает предпринимать попытки реализовать замысел… Отношения между героями, начавшись столь агрессивно, претерпят множество неожиданных трансформаций, вплоть до взаимной симпатии.

Доп. информация:


Качество: DVDRip-AVC /Исходник DVD9/
Формат: MKV
Видео кодек: H.264
Аудио кодек: AC3
Видео: MPEG4 Video (H264) 720x384, 25.00fps, ~1000 Kbps, 0.14Bit/Pixel
Аудио: Dolby AC3, 48.0 KHz, 6 channels, ~128 kbps /Присутствуют посторонние щелчки и скрип/

Format : Matroska
File size : 737 MiB
Duration : 1h 30mn
Overall bit rate : 1 136 Kbps
Encoded date : UTC 2009-08-05 13:49:18
Writing application : mkvmerge v2.9.0 ('Moanin'') built on May 22 2009 17:46:31
Writing library : libebml v0.7.7 + libmatroska v0.8.1

Video
ID : 2
Format : AVC
Format/Info : Advanced Video Codec
Format profile : High@L3.0
Format settings, CABAC : Yes
Format settings, ReFrames : 1 frame
Muxing mode : Container profile=Unknown@3.0
Codec ID : V_MPEG4/ISO/AVC
Duration : 1h 30mn
Bit rate : 1 000 Kbps
Width : 720 pixels
Height : 384 pixels
Display aspect ratio : 1.875
Frame rate : 25.000 fps
Color space : YUV
Chroma subsampling : 4:2:0
Bit depth : 8 bits
Scan type : Progressive
Bits/(Pixel*Frame) : 0.145
Stream size : 639 MiB (87%)
Writing library : x264 core 67 r1145bm_exp5 d2e1e1c
Encoding settings : cabac=1 / ref=1 / deblock=1:0:0 / analyse=0x3:0x13 / me=umh / subme=7 / psy_rd=0.0:0.0 / mixed_ref=0 / me_range=16 / chroma_me=1 / trellis=0 / 8x8dct=1 / cqm=0 / deadzone=21,11 / chroma_qp_offset=0 / threads=1 / thread_queue=1 / nr=0 / decimate=1 / mbaff=0 / bframes=0 / keyint=250 / keyint_min=25 / scenecut=40 / rc=abr / bitrate=1000 / ratetol=1.0 / qcomp=0.60 / qpmin=1 / qpmax=31 / qpstep=4 / ip_ratio=1.40 / aq=1:1.00

Audio
ID : 1
Format : AC-3
Format/Info : Audio Coding 3
Mode extension : CM (complete main)
Codec ID : A_AC3
Duration : 1h 30mn
Bit rate mode : Constant
Bit rate : 128 Kbps
Channel(s) : 6 channels
Channel positions : Front: L C R, Side: L R, LFE
Sampling rate : 48.0 KHz
Bit depth : 16 bits
Stream size : 83.0 MiB (11%)
Language : Russian

Для изображения панических состояний Леонид Бичевин использовал собственный жизненный опыт — однажды он порезался стеклом и начал терять сознание от потери крови.

Музыку к фильму написали Леонид Федоров и Владимир Волков, причем кое-что было сделано специально для этой ленты, но продюсер Игорь Лебедев (он же режиссер и сценарист Игорь Ворскла) оставил в фильме старые песни Федорова и "Волковтрио".
______________________________________________________________________

Мария Машкова, исполняющая роль Вики, снялась в фильме вместе со своей мамой - Еленой Шевченко, исполнившей небольшую роль секретарши Арнольда.









Скачать Закрытые.пространства.(Игорь.Ворскла.и.Амурбек.Гобашиев).[2008.г.Артхаус.Комедия.Драма.DVDRip].torrent без регистрации
Золото ЗОЛОТАЯ РАЗДАЧА! СКАЧАННОЕ НЕ ЗАСЧИТЫВАЕТСЯ! Золото
Дата: Зарегистрирован   [ Тип: внутренний ] Как тут cкачать?
MAGNET ссылка
MAGNET ссылка


Скачать .torrent

15 KB

Статус: проверено DHT
Скачан: торрент - 160 раз, раздача полностью - 14 раз
Размер: 737 MB
Оценка:  - (Голосов: 0)
Поблагодарили: 0
Поделиться ссылкой на эту раздачу с друзьями:
В контактеFacebookОдноклассникиTwitterLivejournalМой МирLiveinternet
 

 
Показать сообщения:    


Вы не можете начинать темы
Вы не можете отвечать на сообщения
Вы не можете редактировать свои сообщения
Вы не можете удалять свои сообщения
Вы не можете голосовать в опросах
Вы не можете прикреплять файлы к сообщениям
Вы можете скачивать файлы