Loading...
Error

Скачать Настоящая любовь (Станислав Мареев) [2008, мелодрама, DVDRip] [Files-X] торрент без регистрации

 
Статистика раздачи
Размер:  1,37 GB   |    Скачан:  132 раза
Сидов:  1  [  0 KB/s  ]  
 
Автор Сообщение

МихаНЕзатор

[] 

Информация о фильме
Оригинальное название: Настоящая любовь
Год выпуска: 2008
Жанр: Мелодрама
Выпущено: Россия, Goldberg Pictures
Режиссер: Станислав Мареев
В ролях: Татьяна Федоровская, Игорь Лифанов, Александр Баширов, Сергей Русскин, Анна Самохина, Владимир Турчинский, Анна Лутцева, Ольга Маркина, Сережа Медведев, Алексей Огурцов, Ирина Основина, Юрий Смирнов, Никита Сологалов

О фильме: Нине почти 20 лет, она инвалид. Несколько лет назад она с папой попала в автомобильную аварию. Отец успел спасти дочь, а сам погиб. С тех пор все в жизни чудом спасшейся девочки идет не так, и с каждым годом становится только хуже... Нина не может забыть ту ужасную катастрофу. Кости сломанной ноги неправильно срастаются, в итоге врачи и вовсе предлагают ампутировать конечность. Мать девушки не в силах ей помочь, бедная женщина очень тяжело переживает потерю любимого мужа и главного кормильца в семье. Она винит во всем Нину, и из-за этого их отношения еще более усложняются. Нина пытается покончить жизнь самоубийством, она вскрывает вены. Врачам удается спасти бедняжку. Но с появлением в коммунальной квартире, где живет Нина, новой соседки все меняется в жизни девочки-инвалида. Тем более что красавицу-актрису повсюду сопровождают двое веселых и привлекательных мужчин.

Продолжительность: 01:31:33
Перевод: Не требуется

Файл
Формат:AVI
Качество: DVDRip
Видео: XviD, 1937 Кбит/с, 704x400, 25.000 fps
Аудио: AC3, 48 kHz, 2 ch, 192 Кбит/с



Релиз от:
General
Complete name : H:FilmМОИNastoyaschaya.lyubov.2008.XviD.DVDRip-Files-X.avi
Format : AVI
Format/Info : Audio Video Interleave
File size : 1.37 GiB
Duration : 1h 31mn
Overall bit rate : 2 139 Kbps
Writing application : VirtualDubMod 1.5.10.2 (build 2540/release)
Writing library : VirtualDubMod build 2540/release

Video
ID : 0
Format : MPEG-4 Visual
Format profile : Advanced Simple@L5
Format settings, BVOP : Yes
Format settings, QPel : No
Format settings, GMC : No warppoints
Format settings, Matrix : Default (MPEG)
Codec ID : XVID
Codec ID/Hint : XviD
Duration : 1h 31mn
Bit rate : 1 937 Kbps
Width : 704 pixels
Height : 400 pixels
Display aspect ratio : 16:9
Frame rate : 25.000 fps
Color space : YUV
Chroma subsampling : 4:2:0
Bit depth : 8 bits
Scan type : Progressive
Bits/(Pixel*Frame) : 0.275
Stream size : 1.24 GiB (91%)
Writing library : XviD 1.2.1 (UTC 2008-12-04)

Audio
ID : 1
Format : AC-3
Format/Info : Audio Coding 3
Mode extension : CM (complete main)
Codec ID : 2000
Duration : 1h 31mn
Bit rate mode : Constant
Bit rate : 192 Kbps
Channel(s) : 2 channels
Channel positions : Front: L R
Sampling rate : 48.0 KHz
Bit depth : 16 bits
Stream size : 126 MiB (9%)
Alignment : Split accross interleaves
Interleave, duration : 40 ms (1.00 video frame)
Interleave, preload duration : 500 ms



Скачать Настоящая.любовь.(Станислав.Мареев).[2008.мелодрама.DVDRip].[Files-X].torrent без регистрации
Золото ЗОЛОТАЯ РАЗДАЧА! СКАЧАННОЕ НЕ ЗАСЧИТЫВАЕТСЯ! Золото
Дата: Зарегистрирован   [ Тип: внутренний ] Как тут cкачать?
MAGNET ссылка
MAGNET ссылка


Скачать .torrent

14 KB

Статус: проверено DHT
Скачан: торрент - 132 раз, раздача полностью - 139 раз
Размер: 1,37 GB
Оценка:  5 (Голосов: 1)
Поблагодарили: 2
Поделиться ссылкой на эту раздачу с друзьями:
В контактеFacebookОдноклассникиTwitterLivejournalМой МирLiveinternet
 

 
Показать сообщения:    


Вы не можете начинать темы
Вы не можете отвечать на сообщения
Вы не можете редактировать свои сообщения
Вы не можете удалять свои сообщения
Вы не можете голосовать в опросах
Вы не можете прикреплять файлы к сообщениям
Вы можете скачивать файлы