Loading...
Error

Скачать Третье измерение ада / Дьявольский стул / The Devil's Chair (Адам Мэйсон) [2006, Ужасы, DVDRp] [Files-X] торрент без регистрации

 
Статистика раздачи
Размер:  1,37 GB   |    Скачан:  141 раз

Полного источника не было: 24 минуты

 
Автор Сообщение

Marsianka

[] 

Информация о фильме
Название: Третье измерение ада / Дьявольский стул
Оригинальное название: The Devil's Chair
Год выпуска: 2006
Жанр: Ужасы
Выпущено: Великобритания, Brand Mason Ltd., Renegade Worldwide
Режиссер: Адам Мэйсон
В ролях: Эндрю Ховард, Полли Браун, Оливия Хилл, Надя Брэнд, Эрик М. Брейман, Гари Маккэй, Дэвид ГантЮ, Луиз Гриффитс, Мэтт Берри

О фильме: Праздношатающийся наркодиллер Ник Уэст приглашает свою подружку Сэмми провести время «под кайфом» в заброшенном доме. Исследуя помещение, они натыкаются на странное устройство нечто среднее между электрическим стулом и садистской машиной идолопоклонников которое превращает их наркотическую эйфорию в предсмертную агонию. Механизм! Липкая жижа бордового цвета с сладковатым запахом повсюду!


Релиз от:

Продолжительность: 01:27:00
Перевод: Русский, профессиональный (многоголосый)

Файл
Формат: AVI
Качество: DVDRip
Видео: XviD, 25.000 fps, 704x384, 1795 Кбит/с
Аудио: АС3, 48.0 kHz, 6ch, 448 Кбит/с
General
Complete name : H:FilmМОИTretie.izmerenie.ada.2006.XviD.DVDRip.Files-X.avi
Format : AVI
Format/Info : Audio Video Interleave
File size : 1.37 GiB
Duration : 1h 27mn
Overall bit rate : 2 252 Kbps
Writing application : VirtualDubMod 1.5.10.2 (build 2540/release)
Writing library : VirtualDubMod build 2540/release
Original source form/Name : Tretie.izmerenie.ada.2006.DVD-5

Video
ID : 0
Format : MPEG-4 Visual
Format profile : Advanced Simple@L5
Format settings, BVOP : Yes
Format settings, QPel : No
Format settings, GMC : No warppoints
Format settings, Matrix : Default (MPEG)
Codec ID : XVID
Codec ID/Hint : XviD
Duration : 1h 27mn
Bit rate : 1 795 Kbps
Width : 704 pixels
Height : 384 pixels
Display aspect ratio : 16:9
Frame rate : 25.000 fps
Color space : YUV
Chroma subsampling : 4:2:0
Bit depth : 8 bits
Scan type : Progressive
Bits/(Pixel*Frame) : 0.266
Stream size : 1.09 GiB (80%)
Writing library : XviD 1.2.1 (UTC 2008-12-04)

Audio
ID : 1
Format : AC-3
Format/Info : Audio Coding 3
Mode extension : CM (complete main)
Codec ID : 2000
Duration : 1h 27mn
Bit rate mode : Constant
Bit rate : 448 Kbps
Channel(s) : 6 channels
Channel positions : Front: L C R, Side: L R, LFE
Sampling rate : 48.0 KHz
Bit depth : 16 bits
Stream size : 279 MiB (20%)
Alignment : Split accross interleaves
Interleave, duration : 40 ms (1.00 video frame)
Interleave, preload duration : 500 ms



Скачать Третье.измерение.ада.Дьявольский.стул.The.Devil's.Chair.(Адам.Мэйсон).[2006.Ужасы.DVDRp].[Files-X].torrent без регистрации
Золото ЗОЛОТАЯ РАЗДАЧА! СКАЧАННОЕ НЕ ЗАСЧИТЫВАЕТСЯ! Золото
Дата: Зарегистрирован   [ Тип: внутренний ] Как тут cкачать?
MAGNET ссылка
MAGNET ссылка


Скачать .torrent

14 KB

Статус: проверено DHT
Скачан: торрент - 141 раз, раздача полностью - 143 раз
Размер: 1,37 GB
Оценка:  - (Голосов: 0)
Поблагодарили: 1
Поделиться ссылкой на эту раздачу с друзьями:
В контактеFacebookОдноклассникиTwitterLivejournalМой МирLiveinternet
 

 
Показать сообщения:    


Вы не можете начинать темы
Вы не можете отвечать на сообщения
Вы не можете редактировать свои сообщения
Вы не можете удалять свои сообщения
Вы не можете голосовать в опросах
Вы не можете прикреплять файлы к сообщениям
Вы можете скачивать файлы