Loading...
Error

Скачать Сатурн 3 / Saturn 3 (Стенли Донен / Stanley Donen) [1980, фантастический триллер, DVDRip] торрент без регистрации

 
Статистика раздачи
Размер:  1,46 GB   |    Скачан:  153 раза
Сидов:  1  [  0 KB/s  ]  
 
Автор Сообщение

Marsianka

[] 

Сатурн 3 / Saturn 3

Страна: Великобритания
Жанр: фантастический триллер
Год выпуска: 1980
Продолжительность: 01:23:51

Перевод: Профессиональный (двухголосый закадровый)
Cубтитры: нет
Оригинальная аудиодорожка: английский

Режиссер: Стенли Донен / Stanley Donen

В ролях: Кирк Дуглас, Фарра Фосетт, Харви Кайтел, Эд Бишоп, Рой Дотрис, Дуглас Ламберт, Кристофер Мюнке

Описание: На космической станции «Титан», расположенной под поверхностью третьего спутника Сатурна, работают двое ученых Эдам и Алекс. Их идиллию нарушает прибытие на станцию капитана Джеймса. Он решил сделать из отдаленной станции полигон для испытания совершенного киборга нового поколения, который сделает его создателя самым могущественным человеком в Солнечной системе. Но первое же испытание киборга показывает, что Джеймс теряет контроль над своим творением, а в обладающем устрашающей мощью роботе заложена программа разрушения



Качество видео: DVDRip(Исх. DVD5)
Формат видео: AVI

Видео: 704x368 (1.91:1), 25 fps, XviD build 50 ~2056 kbps avg, 0.32 bit/pixel
Аудио: 48 kHz, AC3 Dolby Digital, 2/0 (L,R) ch, ~224 kbps RUS
Аудио: 48 kHz, AC3 Dolby Digital, 2/0 (L,R) ch, ~192 kbps ENG

File: Saturn-3.chopper887.avi
Title: Saturn-3.chopper887
Author: chopper887
Genre: Fantasy
Category: Movie
Filesize: 1492.37 Mb ( 1 564 866 560 bytes )
Play length: 01:23:51.040 (125776 frames)
Video: 704x368 (1.91:1), 25 fps, XviD build 50 ~2056 kbps avg, 0.32 bit/pixel
Audio #1: 48 kHz, AC3 Dolby Digital, 2/0 (L,R) ch, ~224 kbps
Audio #2: 48 kHz, AC3 Dolby Digital, 2/0 (L,R) ch, ~192 kbps

General
Complete name : L:Saturn-3.chopper887Saturn-3.chopper887.avi
Format : AVI
Format/Info : Audio Video Interleave
File size : 1.46 GiB
Duration : 1h 23mn
Overall bit rate : 2 488 Kbps
Movie name : Saturn-3.chopper887
Director : chopper887
Genre : Fantasy
Writing application : VirtualDubMod 1.5.10.3 | www.virtualdub-fr.org || (build 2550/release)
Original source form/Name : Movie

Video
ID : 0
Format : MPEG-4 Visual
Format profile : Advanced Simple@L5
Format settings, BVOP : 2
Format settings, QPel : No
Format settings, GMC : No warppoints
Format settings, Matrix : Custom
Codec ID : XVID
Codec ID/Hint : XviD
Duration : 1h 23mn
Bit rate : 2 058 Kbps
Width : 704 pixels
Height : 368 pixels
Display aspect ratio : 1.913
Frame rate : 25.000 fps
Color space : YUV
Chroma subsampling : 4:2:0
Bit depth : 8 bits
Scan type : Progressive
Compression mode : Lossy
Bits/(Pixel*Frame) : 0.318
Stream size : 1.21 GiB (83%)
Writing library : XviD 1.2.1 (UTC 2008-12-04)

Audio #1
ID : 1
Format : AC-3
Format/Info : Audio Coding 3
Mode extension : CM (complete main)
Codec ID : 2000
Duration : 1h 23mn
Bit rate mode : Constant
Bit rate : 224 Kbps
Channel(s) : 2 channels
Channel positions : Front: L R
Sampling rate : 48.0 KHz
Bit depth : 16 bits
Compression mode : Lossy
Stream size : 134 MiB (9%)
Alignment : Split accross interleaves
Interleave, duration : 40 ms (1.00 video frame)
Interleave, preload duration : 500 ms

Audio #2
ID : 2
Format : AC-3
Format/Info : Audio Coding 3
Mode extension : CM (complete main)
Codec ID : 2000
Duration : 1h 23mn
Bit rate mode : Constant
Bit rate : 192 Kbps
Channel(s) : 2 channels
Channel positions : Front: L R
Sampling rate : 48.0 KHz
Bit depth : 16 bits
Compression mode : Lossy
Stream size : 115 MiB (8%)
Alignment : Split accross interleaves
Interleave, duration : 40 ms (1.00 video frame)
Interleave, preload duration : 500 ms



Скачать Сатурн.3.Saturn.3.(Стенли.Донен.Stanley.Donen).[1980.фантастический.триллер.DVDRip].torrent без регистрации
Золото ЗОЛОТАЯ РАЗДАЧА! СКАЧАННОЕ НЕ ЗАСЧИТЫВАЕТСЯ! Золото
Дата: Зарегистрирован   [ Тип: внутренний ] Как тут cкачать?
MAGNET ссылка
MAGNET ссылка


Скачать .torrent

15 KB

Статус: проверено DHT
Скачан: торрент - 153 раз, раздача полностью - 36 раз
Размер: 1,46 GB
Оценка:  - (Голосов: 0)
Поблагодарили: 1
Поделиться ссылкой на эту раздачу с друзьями:
В контактеFacebookОдноклассникиTwitterLivejournalМой МирLiveinternet
 

 

leon030982

[] 

Харви Кейтел а не Кайтел ag
 

Marsianka

[] 

ac
 

leon030982

[] 

Marsianka писал(а):

ac
не ну серьёзно ab без обид ab
 

topalov

[] 

А вдруг она немка?
 
Показать сообщения:    


Вы не можете начинать темы
Вы не можете отвечать на сообщения
Вы не можете редактировать свои сообщения
Вы не можете удалять свои сообщения
Вы не можете голосовать в опросах
Вы не можете прикреплять файлы к сообщениям
Вы можете скачивать файлы