Loading...
Error

Скачать Вдали от нее / Away from Her (Сара Полли) [2006, драма, мелодрама HDRip] торрент без регистрации

 
Статистика раздачи
Размер:  745 MB   |    Скачан:  116 раз
Сидов:  1  [  0 KB/s  ]  
 
Автор Сообщение

МихаНЕзатор

[] 

Информация о фильме
Название: Вдали от нее
Оригинальное название: Away from Her
Год выхода: 2006
Жанр: драма, мелодрама
Режиссер: Сара Полли / Sarah Polley
В ролях: Гордон Пинсент /Gordon Pinsent/, Стейси Ле Бёрг /Stacey LaBerge/, Джули Кристи /Julie Christie/, Олимпия Дукакис /Olympia Dukakis/, Дианна Дезмари /Deanna Dezmari/, Клер Култер /Clare Coulter/, Томас Хауф /Thomas Hauff/

О фильме:
Фиона и Грант, супружеская пара из Онтарио, женаты уже более 40 лет. Теперь, когда жизнь клонится к закату, они вынуждены признать: «забывчивость» Фионы на самом деле проявление болезни Альцгеймера, и женщине необходимо лечиться.

Впервые за долгие годы супругам предстоит продолжительная разлука. По правилам лечебницы, в первый месяц посетители не допускаются, чтобы больному было легче адаптироваться к новым условиям. Когда Грант наконец навещает Фиону, он с ужасом видит, что она не только забыла его, но и отдала свое сердце другому мужчине.



Страна: США, Канада, Великобритания
Студия: Capri Releasing, Echo Lake Productions, Foundry Films, Hanway Films, The Film Farm
Продолжительность: 01:45:06
Перевод: Профессиональный (двухголосый, закадровый)

Файл
Кодек: XviD / MP3
Качество: HDRip
Видео: XviD, 624x352 (16:9), 25.000 fps, 853 Kbps (0.155 bit/pixel)
Звук: MP3, 48.0 KHz, 2 ch, 128 Kbps, CBR
General
Complete name : E:Away.from.Her_(Rutor.org).avi
Format : AVI
Format/Info : Audio Video Interleave
File size : 745 MiB
Duration : 1h 45mn
Overall bit rate : 991 Kbps
Writing application : VirtualDubMod 1.5.10.2 (build 2540/release)
Writing library : VirtualDubMod build 2540/release

Video
ID : 0
Format : MPEG-4 Visual
Format profile : Advanced Simple@L5
Format settings, BVOP : 1
Format settings, QPel : No
Format settings, GMC : No warppoints
Format settings, Matrix : Custom
Codec ID : XVID
Codec ID/Hint : XviD
Duration : 1h 45mn
Bit rate : 853 Kbps
Width : 624 pixels
Height : 352 pixels
Display aspect ratio : 16:9
Frame rate : 25.000 fps
Color space : YUV
Chroma subsampling : 4:2:0
Bit depth : 8 bits
Scan type : Progressive
Compression mode : Lossy
Bits/(Pixel*Frame) : 0.155
Stream size : 642 MiB (86%)
Writing library : XviD 1.2.1 (UTC 2008-12-04)

Audio
ID : 1
Format : MPEG Audio
Format version : Version 1
Format profile : Layer 3
Codec ID : 55
Codec ID/Hint : MP3
Duration : 1h 45mn
Bit rate mode : Constant
Bit rate : 128 Kbps
Channel(s) : 2 channels
Sampling rate : 48.0 KHz
Compression mode : Lossy
Stream size : 96.2 MiB (13%)
Alignment : Aligned on interleaves
Interleave, duration : 40 ms (1.00 video frame)
Interleave, preload duration : 504 ms
Writing library : LAME3.97
Encoding settings : -m s -V 4 -q 2 -lowpass 17 -b 128



Скачать Вдали.от.нее.Away.from.Her.(Сара.Полли).[2006.драма.мелодрама.HDRip].torrent без регистрации
Золото ЗОЛОТАЯ РАЗДАЧА! СКАЧАННОЕ НЕ ЗАСЧИТЫВАЕТСЯ! Золото
Дата: Зарегистрирован   [ Тип: внутренний ] Как тут cкачать?
MAGNET ссылка
MAGNET ссылка


Скачать .torrent

15 KB

Статус: проверено DHT
Скачан: торрент - 116 раз, раздача полностью - 1 раз
Размер: 745 MB
Оценка:  - (Голосов: 0)
Поблагодарили: 1
Поделиться ссылкой на эту раздачу с друзьями:
В контактеFacebookОдноклассникиTwitterLivejournalМой МирLiveinternet
 

 
Показать сообщения:    


Вы не можете начинать темы
Вы не можете отвечать на сообщения
Вы не можете редактировать свои сообщения
Вы не можете удалять свои сообщения
Вы не можете голосовать в опросах
Вы не можете прикреплять файлы к сообщениям
Вы можете скачивать файлы