Loading...
Error

Скачать Соседка / La femme d'ђ c¤t™ (Франсуа Трюффо / Fran—ois Truffaut) [1981, драма, мелодрама, DVDRip] торрент без регистрации

 
Статистика раздачи
Размер:  743 MB   |    Скачан:  201 раз
Сидов:  1  [  0 KB/s  ]  
 
Автор Сообщение

Marsianka

[] 

Информация о фильме
Название: Соседка
Оригинальное название: La femme d'ђ c¤t™
Год выхода: 1981
Жанр: драма, мелодрама
Режиссер: Франсуа Трюффо / Fran—ois Truffaut
В ролях: Жерар Депардье /G™rard Depardieu/, Фанни Ардан /Fanny Ardant/, Анри Гарсен /Henri Garcin/, Мишель Бомгартнер /Mich�le Baumgartner/, Роже ван Хол /Roger Van Hool/, Вероник Сильвер /V™ronique Silver/, Филипп Морье-Жану /Philippe Morier-Genoud/, Оливье Бекар /Olivier Becquaert/

О фильме:
Бернар Кудре образцовый семьянин, проживающий в пригороде Гренобля с любящей красавицей-женой и малолетним сынишкой. Их упорядоченная провинциальная жизнь течет своим чередом, пока в один роковой день в дом по соседству не въезжают Филипп и Матильда Бошары. В последней Бернар узнает женщину, с которой семь лет назад пережил бурный роман. Встретившись снова, былые любовники оказываются на краю пропасти из собственных чувств и борются с искушением пустить под откос жизни свои и своих близких


Страна: Франция
Студия: Les Films du Carrosse, TF1 Films Productions
Продолжительность: Советский дубляж
Перевод: Професиональный (дублированный) [Советский дубляж]

Файл
Кодек: XviD / MP3
Качество: DVDRip
Видео: XviD, 576x352 (1.636), 25.000 fps, 1 011 Kbps (0.199 bit/pixel)
Звук: MP3, 48.0 KHz, 1 ch, 96.0 Kbps, CBR
General
Complete name : E:Соседка.avi
Format : AVI
Format/Info : Audio Video Interleave
File size : 743 MiB
Duration : 1h 32mn
Overall bit rate : 1 117 Kbps
Movie name : Соседка / Femme l'a cote / (1981)
Writing application : VirtualDubMod 1.5.10.2 (build 2542/release)

Video
ID : 0
Format : MPEG-4 Visual
Format profile : Advanced Simple@L5
Format settings, BVOP : 2
Format settings, QPel : No
Format settings, GMC : No warppoints
Format settings, Matrix : Default (MPEG)
Codec ID : XVID
Codec ID/Hint : XviD
Duration : 1h 32mn
Bit rate : 1 011 Kbps
Width : 576 pixels
Height : 352 pixels
Display aspect ratio : 1.636
Frame rate : 25.000 fps
Color space : YUV
Chroma subsampling : 4:2:0
Bit depth : 8 bits
Scan type : Progressive
Compression mode : Lossy
Bits/(Pixel*Frame) : 0.199
Stream size : 672 MiB (91%)
Writing library : XviD 1.3.0.dev55

Audio
ID : 1
Format : MPEG Audio
Format version : Version 1
Format profile : Layer 3
Codec ID : 55
Codec ID/Hint : MP3
Duration : 1h 32mn
Bit rate mode : Constant
Bit rate : 96.0 Kbps
Channel(s) : 1 channel
Sampling rate : 48.0 KHz
Compression mode : Lossy
Stream size : 63.8 MiB (9%)
Alignment : Aligned on interleaves
Interleave, duration : 40 ms (1.00 video frame)
Interleave, preload duration : 504 ms



Скачать Соседка.La.femme.d'ђ.c¤t™.(Франсуа.Трюффо.Fran—ois.Truffaut).[1981.драма.мелодрама.DVDRip].torrent без регистрации
Золото ЗОЛОТАЯ РАЗДАЧА! СКАЧАННОЕ НЕ ЗАСЧИТЫВАЕТСЯ! Золото
Дата: Зарегистрирован   [ Тип: внутренний ] Как тут cкачать?
MAGNET ссылка
MAGNET ссылка


Скачать .torrent

15 KB

Статус: проверено DHT
Скачан: торрент - 201 раз, раздача полностью - 107 раз
Размер: 743 MB
Оценка:  5 (Голосов: 1)
Поблагодарили: 1
Поделиться ссылкой на эту раздачу с друзьями:
В контактеFacebookОдноклассникиTwitterLivejournalМой МирLiveinternet
 

 
Показать сообщения:    


Вы не можете начинать темы
Вы не можете отвечать на сообщения
Вы не можете редактировать свои сообщения
Вы не можете удалять свои сообщения
Вы не можете голосовать в опросах
Вы не можете прикреплять файлы к сообщениям
Вы можете скачивать файлы