Loading...
Error

Скачать Убрать Картера / Get Carter (Майк Ходжис /Mike Hodges) [1971, Триллер, Криминал, Драма, DVDRip] торрент без регистрации

 
Статистика раздачи
Размер:  1,6 GB   |    Скачан:  159 раз
Сидов:  1  [  0 KB/s  ]  
 
Автор Сообщение

Marsianka

[] 

Убрать Картера / Get Carter /1971/ DVDRip

Информация о фильме:

Название: Убрать Картера
Оригинальное название: Get Carter / Jack rechnet ab
Год выхода: 1971
Жанр: Триллер, Криминал, Драма





Режиссер: Майк Ходжис /Mike Hodges/
Сценаристы: Тед Льюис /Ted Lewis/ роман, Майк Ходжис /Mike Hodges/
Оператор: Вольфган Сушитцки/Wolfgang Suschitzky/
Композитор: Рой Бадд /Roy Budd/



В фильме снимались:
Майкл Кейн Джек Картер
Йен Хендри Эрик
Бритт Экланд Анна
Джон Осборн Киннер
Тони Бекли Питер
Джордж Сьюэлл Кон
Джеральдин Моффат Гленда
Дороти Уайт Маргарет
Розмари Данхэм Эдна
Петра Маркшам Дорин
Алан Армстронг Кейт
Брайан Мосли Брамби
Глинн Эдвардс Альберт
Бернард Хептон Торпи
Теренс Ригби Джеральд Флетчер
Джон Биндон Сид Флетчер
и другие...



Описание: Джек Картер уважаемый человек в криминальном мире, профессиональный киллер и непревзойденный специалист по решению различных «проблем&raquo. Нужно выбить деньги у скрывающегося должника Джек справится с этим быстро и жестоко. Нужно разобраться с обнаглевшими «гастролерами» он сделает и это.
Когда Картер получает сообщение о смерти брата в родном Ньюкасле, чутье подсказывает ему, что тому «помогли» отправиться на тот свет Он отправляется домой к семье, которую он забросил, к неоплаченным долгам и к тайне
* Дебют в большом кино режиссера Майка Ходжеса. До этого он около десяти лет работал на телевидении.

* Когда Картер входит в дом Киннера, на стене висит щит и два копья африканского племени зулусов. Это отсылка к фильму «Зулусы» - первый экранный успех Майкла Кейна.

* На дробовике Картера нацарапаны инициалы JC (Jack Carter) и FC (Frank Carter).

* Сперва на роль Картера Майк Ходжес хотел взять популярного британского актера Йена Хендри. Но, в результате, роль досталась Кейну, а Хендри стал негодяем Эриком. Майк Ходжес рассказывал, что Хендри не мог простить Кейну, что тот отобрал у него эффектную роль, и ненависть к нему нашла идеальное воплощение на экране в исступленном противостоянии их героев.

* Сцена, где Картер впервые встречает Эрика на ипподроме, была снята с одного дубля.

* На роль Клиффа Брамби студия хотела заполучить Телли Саваласа.

* Белый «Кадиллак» для съемок предоставил продюсер Майкл Клингер.

* Майкл Кейн также выступил продюсером фильма, однако в титрах его имени нет.

* В 2004 году британский журнал Total Film назвал ленту Ходжеса фильмом 1 в истории английского кино.

* В прокате фильму была присвоена категория "X" из-за обилия сцен насилия и эротики, а сцена телефонного разговора между Джеком и Анной была вообще запрещена для показа в некоторых странах.

* Майкл Кейн в роли Джека Картера по опросу &laquoTotal Film» был признан самым отвратительным персонажем кинематографа.

Wikipedia^


Страна:
Выпущено: Metro-Goldwyn-Mayer British Studios
Продолжительность: 01:47:01
Перевод: Профессиональный, двухголосый (закадровый)
Перевод: Авторский, одноголосый (закадровый) Гаврилов /отдельно/
Субтитры: Русские /VobSub/









Format : AVI
Format/Info : Audio Video Interleave
File size : 1.45 GiB
Duration : 1h 47mn
Overall bit rate : 1 945 Kbps
Writing application : VirtualDubMod 1.5.10.2 (build 2540/release)
Writing library : VirtualDubMod build 2540/release

Video
ID : 0
Format : MPEG-4 Visual
Format profile : Advanced Simple@L5
Format settings, BVOP : Yes
Format settings, QPel : Yes
Format settings, GMC : 3 warppoints
Format settings, Matrix : Default (H.263)
Codec ID : XVID
Codec ID/Hint : XviD
Duration : 1h 47mn
Bit rate : 1 746 Kbps
Width : 704 pixels
Height : 392 pixels
Display aspect ratio : 16:9
Frame rate : 25.000 fps
Color space : YUV
Chroma subsampling : 4:2:0
Bit depth : 8 bits
Scan type : Progressive
Bits/(Pixel*Frame) : 0.253
Stream size : 1.31 GiB (90%)
Writing library : XviD 1.2.1 (UTC 2008-12-04)

Audio
ID : 1
Format : MPEG Audio
Format version : Version 1
Format profile : Layer 3
Codec ID : 55
Codec ID/Hint : MP3
Duration : 1h 47mn
Bit rate mode : Variable
Bit rate : 192 Kbps
Channel(s) : 2 channels
Sampling rate : 48.0 KHz
Stream size : 143 MiB (10%)
Alignment : Aligned on interleaves
Interleave, duration : 24 ms (0.60 video frame)
Interleave, preload duration : 440 ms
Writing library : LAME3.98r
Encoding settings : -m s -V 4 -q 2 -lowpass 18.6 --abr 192

Audio 2 /Отдельно/
Format : AC-3
Format/Info : Audio Coding 3
Mode extension : CM (complete main)
Duration : 1h 47mn
Bit rate mode : Constant
Bit rate : 192 Kbps
Channel(s) : 2 channels
Channel positions : Front: L R
Sampling rate : 48.0 KHz
Bit depth : 16 bits
Stream size : 147 MiB (100%)


Качество: DVDRip
Формат:AVI
Видео кодек: XviD
Аудио кодек: MP3 / AC3
Видео: 704x392 (1.80:1), 25 fps, XviD build 50 ~1745 kbps avg, 0.25 bit/pixel
Аудио 1: 48 kHz, MPEG Layer 3, 2 ch, ~186.63 kbps avg /Двухголосый/
Аудио 2: 48 kHz, AC3, 2 ch, ~192 kbps avg /Гаврилов/ Отдельно






Скачать Убрать.Картера.Get.Carter.(Майк.Ходжис.Mike.Hodges).[1971.Триллер.Криминал.Драма.DVDRip].torrent без регистрации
Золото ЗОЛОТАЯ РАЗДАЧА! СКАЧАННОЕ НЕ ЗАСЧИТЫВАЕТСЯ! Золото
Дата: Зарегистрирован   [ Тип: внутренний ] Как тут cкачать?
MAGNET ссылка
MAGNET ссылка


Скачать .torrent

17 KB

Статус: проверено DHT
Скачан: торрент - 159 раз, раздача полностью - 4 раз
Размер: 1,6 GB
Оценка:  - (Голосов: 0)
Поблагодарили: 0
Поделиться ссылкой на эту раздачу с друзьями:
В контактеFacebookОдноклассникиTwitterLivejournalМой МирLiveinternet
 

 
Показать сообщения:    


Вы не можете начинать темы
Вы не можете отвечать на сообщения
Вы не можете редактировать свои сообщения
Вы не можете удалять свои сообщения
Вы не можете голосовать в опросах
Вы не можете прикреплять файлы к сообщениям
Вы можете скачивать файлы