Loading...
Error

Скачать Вдали от нее / Away from Her (Сара Полли) [2006, драма, мелодрама, HDRip] торрент без регистрации

 
Статистика раздачи
Размер:  1,45 GB   |    Скачан:  117 раз

Полного источника не было: 25 минут

 
Автор Сообщение

МихаНЕзатор

[] 

Информация о фильме
Название: Вдали от нее
Оригинальное название: Away from Her
Год выхода: 2006
Жанр: драма, мелодрама
Режиссер: Сара Полли / Sarah Polley
В ролях: Гордон Пинсент /Gordon Pinsent/, Стейси Ле Бёрг /Stacey LaBerge/, Джули Кристи /Julie Christie/, Олимпия Дукакис /Olympia Dukakis/, Дианна Дезмари /Deanna Dezmari/, Клер Култер /Clare Coulter/, Томас Хауф /Thomas Hauff/

О фильме:
Фиона и Грант, супружеская пара из Онтарио, женаты уже более 40 лет. Теперь, когда жизнь клонится к закату, они вынуждены признать: «забывчивость» Фионы на самом деле проявление болезни Альцгеймера, и женщине необходимо лечиться.

Впервые за долгие годы супругам предстоит продолжительная разлука. По правилам лечебницы, в первый месяц посетители не допускаются, чтобы больному было легче адаптироваться к новым условиям. Когда Грант наконец навещает Фиону, он с ужасом видит, что она не только забыла его, но и отдала свое сердце другому мужчине.


Страна: США, Канада, Великобритания
Студия: Capri Releasing, Echo Lake Productions, Foundry Films, Hanway Films, The Film Farm
Продолжительность: 01:45:06
Перевод: Профессиональный (двухголосый, закадровый)

Файл
Кодек: XviD / AC-3
Качество: HDRip
Видео: XviD, 688x384 (16:9), 25.000 fps, 1 583 Kbps (0.240 bit/pixel)
Звук: AC-3, 48.0 KHz, 6 ch, 384 Kbps, CBR
General
Complete name : E:Away.from.Her.1400_[Rutor.org].avi
Format : AVI
Format/Info : Audio Video Interleave
File size : 1.45 GiB
Duration : 1h 45mn
Overall bit rate : 1 976 Kbps
Writing application : VirtualDubMod 1.5.10.2 (build 2540/release)
Writing library : VirtualDubMod build 2540/release

Video
ID : 0
Format : MPEG-4 Visual
Format profile : Advanced Simple@L5
Format settings, BVOP : 1
Format settings, QPel : No
Format settings, GMC : No warppoints
Format settings, Matrix : Custom
Codec ID : XVID
Codec ID/Hint : XviD
Duration : 1h 45mn
Bit rate : 1 583 Kbps
Width : 688 pixels
Height : 384 pixels
Display aspect ratio : 16:9
Frame rate : 25.000 fps
Color space : YUV
Chroma subsampling : 4:2:0
Bit depth : 8 bits
Scan type : Progressive
Compression mode : Lossy
Bits/(Pixel*Frame) : 0.240
Stream size : 1.16 GiB (80%)
Writing library : XviD 1.2.1 (UTC 2008-12-04)

Audio
ID : 1
Format : AC-3
Format/Info : Audio Coding 3
Mode extension : CM (complete main)
Codec ID : 2000
Duration : 1h 45mn
Bit rate mode : Constant
Bit rate : 384 Kbps
Channel(s) : 6 channels
Channel positions : Front: L C R, Side: L R, LFE
Sampling rate : 48.0 KHz
Bit depth : 16 bits
Compression mode : Lossy
Stream size : 289 MiB (19%)
Alignment : Split accross interleaves
Interleave, duration : 40 ms (1.00 video frame)
Interleave, preload duration : 500 ms



Скачать Вдали.от.нее.Away.from.Her.(Сара.Полли).[2006.драма.мелодрама.HDRip].torrent без регистрации
Золото ЗОЛОТАЯ РАЗДАЧА! СКАЧАННОЕ НЕ ЗАСЧИТЫВАЕТСЯ! Золото
Дата: Зарегистрирован   [ Тип: внутренний ] Как тут cкачать?
MAGNET ссылка
MAGNET ссылка


Скачать .torrent

15 KB

Статус: проверено DHT
Скачан: торрент - 117 раз, раздача полностью - 13 раз
Размер: 1,45 GB
Оценка:  5 (Голосов: 1)
Поблагодарили: 1
Поделиться ссылкой на эту раздачу с друзьями:
В контактеFacebookОдноклассникиTwitterLivejournalМой МирLiveinternet
 

 
Показать сообщения:    


Вы не можете начинать темы
Вы не можете отвечать на сообщения
Вы не можете редактировать свои сообщения
Вы не можете удалять свои сообщения
Вы не можете голосовать в опросах
Вы не можете прикреплять файлы к сообщениям
Вы можете скачивать файлы