Loading...
Error

Скачать Мертвое поле (Александр Аравин) [2006, военный, драма, DVDRip] [Files-X] торрент без регистрации

 
Статистика раздачи
Размер:  2,05 GB   |    Скачан:  160 раз
Сидов:  1  [  0 KB/s  ]  
 
Автор Сообщение

МихаНЕзатор

[] 

Информация о фильме
Оригинальное название: Мёртвое поле
Год выхода: 2006
Жанр: Военный, драма
Выпущено:Россия, Дар:ХХI
Режиссер: Александр Аравин
В ролях: Янина Соколовская, Алексей Шевченков, Алексей Бардуков, Иван Стебунов, Константин Милованов, Шамиль Хаматов, Михаил Шкловский

О фильме:
События разворачиваются в период второй чеченской кампании на границе Чечни и Ставропольского края. Рядом с посёлком, где живут обыкновенные люди, стоит воинская часть, где служат простые российские солдаты. Подразделением саперов, состоящим в основном из мальчишек-призывников, командует молодой лейтенант, когда-то мечтавший стать летчиком. Он получает приказ разминировать бывшее хлебное поле, на котором никто не сеет уже более 10 лет. Военные и местные жители называют его «мертвым»

Продолжительность: 01:51:00
Перевод: не требуется

Файл
Формат: AVI
Качество: DVDRip
Видео: XviD, 25.000 fps, 704х400, 2360 Кбит/с
Аудио: АС3, 48.0 KHz, 2ch, 256 Кбит/с



Релиз от:

General
Complete name : H:FilmМОИНовая папкаMertvoe.pole.2006.XviD.DVDRip.Files-X.avi
Format : AVI
Format/Info : Audio Video Interleave
Format profile : OpenDML
File size : 2.05 GiB
Duration : 1h 51mn
Overall bit rate : 2 628 Kbps
Writing application : VirtualDubMod 1.5.10.2 (build 2540/release)
Writing library : VirtualDubMod build 2540/release

Video
ID : 0
Format : MPEG-4 Visual
Format profile : Advanced Simple@L5
Format settings, BVOP : 1
Format settings, QPel : No
Format settings, GMC : No warppoints
Format settings, Matrix : Default (MPEG)
Codec ID : XVID
Codec ID/Hint : XviD
Duration : 1h 51mn
Bit rate : 2 360 Kbps
Width : 704 pixels
Height : 400 pixels
Display aspect ratio : 16:9
Frame rate : 25.000 fps
Color space : YUV
Chroma subsampling : 4:2:0
Bit depth : 8 bits
Scan type : Progressive
Compression mode : Lossy
Bits/(Pixel*Frame) : 0.335
Stream size : 1.84 GiB (90%)
Writing library : XviD 1.2.1 (UTC 2008-12-04)

Audio
ID : 1
Format : AC-3
Format/Info : Audio Coding 3
Mode extension : CM (complete main)
Codec ID : 2000
Duration : 1h 51mn
Bit rate mode : Constant
Bit rate : 256 Kbps
Channel(s) : 2 channels
Channel positions : Front: L R
Sampling rate : 48.0 KHz
Bit depth : 16 bits
Compression mode : Lossy
Stream size : 205 MiB (10%)
Alignment : Split accross interleaves
Interleave, duration : 40 ms (1.00 video frame)
Interleave, preload duration : 500 ms



Скачать Мертвое.поле.(Александр.Аравин).[2006.военный.драма.DVDRip].[Files-X].torrent без регистрации
Золото ЗОЛОТАЯ РАЗДАЧА! СКАЧАННОЕ НЕ ЗАСЧИТЫВАЕТСЯ! Золото
Дата: Зарегистрирован   [ Тип: внутренний ] Как тут cкачать?
MAGNET ссылка
MAGNET ссылка


Скачать .torrent

11 KB

Статус: проверено DHT
Скачан: торрент - 160 раз, раздача полностью - 139 раз
Размер: 2,05 GB
Оценка:  - (Голосов: 0)
Поблагодарили: 1
Поделиться ссылкой на эту раздачу с друзьями:
В контактеFacebookОдноклассникиTwitterLivejournalМой МирLiveinternet
 

 
Показать сообщения:    


Вы не можете начинать темы
Вы не можете отвечать на сообщения
Вы не можете редактировать свои сообщения
Вы не можете удалять свои сообщения
Вы не можете голосовать в опросах
Вы не можете прикреплять файлы к сообщениям
Вы можете скачивать файлы