Loading...
Error

Скачать Другой мужчина / The Other Man (Ричард Айр) [2008, триллер, драма, детектив, HDRip] [Лицензия] торрент без регистрации

 
Статистика раздачи
Размер:  742 MB   |    Скачан:  134 раза
Сидов:  1  [  0 KB/s  ]  
 
Автор Сообщение

МихаНЕзатор

[] 

Информация о фильме
Название: Другой мужчина
Оригинальное название: The Other Man
Год выхода: 2008
Жанр: триллер, драма, детектив
Режиссер: Ричард Айр / Richard Eyre
В ролях: Лора Линни, Лиам Нисон, Антонио Бандерас, Эбигейл Кэнтон, Аманда Дрю, Ромола Гарай, Кас Грэхэм, Лоуренс Ричардсон, Лиза МакДональд

О фильме:
Питер удачлив в бизнесе и счастлив в браке. Казалось бы, его жизнь идеальна прекрасный дом, красавица жена, умница дочь. Но однажды его вторая половинка исчезает. Питер безутешен. Он ищет ее, расспрашивает знакомых, и находит фотографии. У его жены был любовник.

Кто он? Подгоняемый ревностью и мыслями о мести, открывая все новые и новые детали, Питер выслеживает его в Милане. Сможет ли обманутый муж совладать со своей яростью? И как поступит любовник? Есть ли в любви вещи, которые можно простить? Есть ли в любви вещи, которые можно забыть?



Страна: США, Великобритания
Продолжительность: 01:27:56
Перевод: Профессиональный (двухголосый, закадровый) | Лицензия

Файл
Кодек: XviD / MP3
Качество: HDRip
Видео: XviD, 688x288 (2.35:1), 23.976 fps, 1 042 Kbps (0.219 bit/pixel)
Звук: MP3, 48.0 KHz, 2 ch, 128 Kbps, CBR
General
Complete name : E:The.Other.Man_[Rutor.org].avi
Format : AVI
Format/Info : Audio Video Interleave
File size : 742 MiB
Duration : 1h 27mn
Overall bit rate : 1 179 Kbps
Writing application : VirtualDubMod 1.5.10.2 (build 2540/release)
Writing library : VirtualDubMod build 2540/release

Video
ID : 0
Format : MPEG-4 Visual
Format profile : Advanced Simple@L5
Format settings, BVOP : 1
Format settings, QPel : No
Format settings, GMC : No warppoints
Format settings, Matrix : Custom
Codec ID : XVID
Codec ID/Hint : XviD
Duration : 1h 27mn
Bit rate : 1 042 Kbps
Width : 688 pixels
Height : 288 pixels
Display aspect ratio : 2.40:1
Frame rate : 23.976 fps
Color space : YUV
Chroma subsampling : 4:2:0
Bit depth : 8 bits
Scan type : Progressive
Compression mode : Lossy
Bits/(Pixel*Frame) : 0.219
Stream size : 655 MiB (88%)
Writing library : XviD 1.2.1 (UTC 2008-12-04)

Audio
ID : 1
Format : MPEG Audio
Format version : Version 1
Format profile : Layer 3
Codec ID : 55
Codec ID/Hint : MP3
Duration : 1h 27mn
Bit rate mode : Constant
Bit rate : 128 Kbps
Channel(s) : 2 channels
Sampling rate : 48.0 KHz
Compression mode : Lossy
Stream size : 80.5 MiB (11%)
Alignment : Aligned on interleaves
Interleave, duration : 42 ms (1.00 video frame)
Interleave, preload duration : 504 ms
Writing library : LAME3.97
Encoding settings : -m s -V 4 -q 2 -lowpass 17 -b 128



Скачать Другой.мужчина.The.Other.Man.(Ричард.Айр).[2008.триллер.драма.детектив.HDRip].[Лицензия].torrent без регистрации
Золото ЗОЛОТАЯ РАЗДАЧА! СКАЧАННОЕ НЕ ЗАСЧИТЫВАЕТСЯ! Золото
Дата: Зарегистрирован   [ Тип: внутренний ] Как тут cкачать?
MAGNET ссылка
MAGNET ссылка


Скачать .torrent

15 KB

Статус: проверено DHT
Скачан: торрент - 134 раз, раздача полностью - 41 раз
Размер: 742 MB
Оценка:  - (Голосов: 0)
Поблагодарили: 3
Поделиться ссылкой на эту раздачу с друзьями:
В контактеFacebookОдноклассникиTwitterLivejournalМой МирLiveinternet
 

 
Показать сообщения:    


Вы не можете начинать темы
Вы не можете отвечать на сообщения
Вы не можете редактировать свои сообщения
Вы не можете удалять свои сообщения
Вы не можете голосовать в опросах
Вы не можете прикреплять файлы к сообщениям
Вы можете скачивать файлы