Loading...
Error

Скачать Убей меня / You Kill Me (Джон Дал) [2007, криминальная трагикомедия, HDRip] торрент без регистрации

 
Статистика раздачи
Размер:  732 MB   |    Скачан:  118 раз
Сидов:  1  [  0 KB/s  ]  
 
Автор Сообщение

leon030982

[] 



Убей меня / You Kill Me [2007, США, криминальная трагикомедия, HDRip]

Страна: США
Жанр: криминальная трагикомедия
Год выпуска: 2007
Продолжительность: 1:32:38

Перевод: Профессиональный (дублированный)
Cубтитры:нет

Режиссер: Джон Дал / John Dahl

В ролях: Бен Кингсли /Ben Kingsley/, Теа Леони /T™a Leoni/, Люк Уилсон /Luke Wilson/, Дэннис Фарина /Dennis Farina/, Филип Бейкер Холл /Philip Baker Hall/, Билл Пуллман /Bill Pullman/, Маркус Томас /Marcus Thomas/, Скотт Хейндл /Scott Heindl/, Элисон Сили-Смит /Alison Sealy-Smith/, Арон Тэйджер /Aron Tager/

Описание: Фрэнк наемный убийца мафии. Однажды он круто напился и проспал очень важное задание. Твердо решив «завязать», герой ложится в клинику. Кто мог подумать, что вместо белой горячки он встретит там неземную любовь и решит начать новую жизнь? Однако сначала ему придется выполнить старый заказ. Ведь гнусный тип его будущая жертва захватил власть в городе, и ситуация вышла из-под контроля. Фрэнки без труда разобрался бы с выскочкой. Но невеста героя решила тайком «помочь» ему, превратив в чудовищный хаос простое и легкое дело



Доп. информация:

Качество видео: HDRip(Исх. BD1080)
Формат видео: AVI

Видео: 688x272 (2.53:1), 23.976 fps, XviD build 50 ~967 kbps avg, 0.22 bit/pixel
Аудио: 48 kHz, MPEG Layer 3, 2 ch, ~128.00 kbps avg

File: You.Kill.Me.700.chopper887.avi
Filesize: 732.05 Mb ( 767 608 832 bytes )
Play length: 01:32:38.103 (133261 frames)
Subtitles: Not Present
Video: 688x272 (2.53:1), 23.976 fps, XviD build 50 ~967 kbps avg, 0.22 bit/pixel
Audio: 48 kHz, MPEG Layer 3, 2 ch, ~128.00 kbps avg

General
Complete name : D:You.Kill.Me.700.chopper887.avi
Format : AVI
Format/Info : Audio Video Interleave
File size : 732 MiB
Duration : 1h 32mn
Overall bit rate : 1 105 Kbps
Writing application : VirtualDubMod 1.5.10.2 (build 2540/release)
Writing library : VirtualDubMod build 2540/release

Video
ID : 0
Format : MPEG-4 Visual
Format profile : AdvancedSimple@L5
Format settings, BVOP : Yes
Format settings, QPel : No
Format settings, GMC : No warppoints
Format settings, Matrix : Custom
Codec ID : XVID
Codec ID/Hint : XviD
Duration : 1h 32mn
Bit rate : 968 Kbps
Width : 688 pixels
Height : 272 pixels
Display aspect ratio : 2.529
Frame rate : 23.976 fps
Resolution : 24 bits
Colorimetry : 4:2:0
Scan type : Progressive
Bits/(Pixel*Frame) : 0.216
Stream size : 641 MiB (88%)
Writing library : XviD 1.2.1 (UTC 2008-12-04)

Audio
ID : 1
Format : MPEG Audio
Format version : Version 1
Format profile : Layer 3
Codec ID : 55
Codec ID/Hint : MP3
Duration : 1h 32mn
Bit rate mode : Constant
Bit rate : 128 Kbps
Channel(s) : 2 channels
Sampling rate : 48.0 KHz
Resolution : 16 bits
Stream size : 84.6 MiB (12%)
Alignment : Aligned on interleaves
Interleave, duration : 42 ms (1.00 video frame)
Interleave, preload duration : 504 ms
Writing library : LAME3.98r
Encoding settings : -m s -V 4 -q 2 -lowpass 17 -b 128



Скачать Убей.меня.You.Kill.Me.(Джон.Дал).[2007.криминальная.трагикомедия.HDRip].torrent без регистрации
Золото ЗОЛОТАЯ РАЗДАЧА! СКАЧАННОЕ НЕ ЗАСЧИТЫВАЕТСЯ! Золото
Дата: Зарегистрирован   [ Тип: внутренний ] Как тут cкачать?
MAGNET ссылка
MAGNET ссылка


Скачать .torrent

15 KB

Статус: проверено DHT
Скачан: торрент - 118 раз, раздача полностью - 12 раз
Размер: 732 MB
Оценка:  - (Голосов: 0)
Поблагодарили: 2
Поделиться ссылкой на эту раздачу с друзьями:
В контактеFacebookОдноклассникиTwitterLivejournalМой МирLiveinternet
 

 

onealoner

[] 

leon030982
Добавьте рейтинги кинопоиска или IMDB
 

leon030982

[] 

onealoner писал(а):

leon030982
Добавьте рейтинги кинопоиска или IMDB
добавил az
 
Показать сообщения:    


Вы не можете начинать темы
Вы не можете отвечать на сообщения
Вы не можете редактировать свои сообщения
Вы не можете удалять свои сообщения
Вы не можете голосовать в опросах
Вы не можете прикреплять файлы к сообщениям
Вы можете скачивать файлы