Loading...
Error

Скачать Боишься ли ты темноты? / Are you afraid of the dark? (Не полные 5 сезонов) (D.J. MacHale; David Winning) [1992-1996, Семейный / Мистика / Ужасы, TV/VHSRip] торрент без регистрации

 
Статистика раздачи
Размер:  11,94 GB   |    Скачан:  573 раза
Сидов:  2  [  0 KB/s  ]  
 
Автор Сообщение

maxcross

[] 

Боишься ли ты темноты? / Are you afraid of the dark?
Год выпуска: 1992-1996
Страна: Канада
Жанр: Семейный / Мистика / Ужасы
Продолжительность: ~23 мин. каждая серия, общее время ~18 часов (48 серий)
Перевод: профессиональный многоголосый закадровый
Русские субтитры: нет
Режиссёр: D.J. MacHale; David Winning
В ролях: Ross Hull ... Gary (1992–1996)
Raine Pare-Coull ... Betty Ann (1992–1996)
Jodie Resther ... Kiki (1992–1996)
Jason Alisharan ... Frank (1992–1995)
Daniel DeSanto ... Tucker (1993–1996)
Joanna Garcia ... Samantha (1993–1996)
Rachel Blanchard ... Kristen (1992–1993)
Nathaniel Moreau ... David (1992–1993)
Codie Wilbee ... Stig (1995–1996)
Jacob Tierney ... Eric (1992)
Описание: "Боишься ли ты темноты?" - подростковый мистический сериал. Группа подростков, называющаяся себя Обществом полуночников, рассказывают друг другу байки ночью в лесу у костра, каждая серия - это отдельная байка.
Сериал состоит из 7 сезонов по 13 серий, всего 91 серия 1-5 сезоны выходили с 1992 по 1996 гг. В 1999 году он был возрожден, с другими режиссерами, сценаристами и актерами, после возрождения было снято всего 2 сезона.
Доп. информация: Оцифровал с VHS кассет, записанных на LP скорости. Серии записывались с эфира городского канала в середине 90-х. Всего у меня было записано 48 серий из разных сезонов. Телеканал транслировал серии не по порядку и не все, но кое-что я и сам пропустил. Изображение очищено от сильных шумов на кассете, но при этом потерялась четкость. Звук очищен от шипения, но изначально не имеет высоких частот (запись на LP!). Вырезана бегущая строка растягиванием свободной части кадра на весь экран в эти моменты. У некоторых серий нет первых минут, но заставка подклеена из других серий. При кодировании в MPEG2 оставлен интерлейс для более плавного воспроизведения на стационарных плейерах и в PowerDVD, при просмотре некоторыми софтовыми проигрывателями может появляться "расческа". Из данных файлов без перекодирования можно собрать DVD диск с меню в программах авторинга.
Качество: TV/VHSRip
Формат: MPG
Видео кодек: MPEG2
Аудио кодек: MPEG Layer 2
Видео: 352x576 (анаморф 4:3), 25 fps, MPEG2, Variable ~1300 kbps (в среднем)
Аудио: 48 kHz, MPEG Layer 2 (mp2, mpa), 1 ch, 128 kbps
(Русское название - как произнесено в переводе, дата - первый выход на экран)
Сезон 1, Серия 8: История о ночных соседях / The Tale of the Nightly Neighbours (3 October 1992)
Сезон 1, Серия 9: История об ученике чернокнижника / The Tale of the Sorcerer's Apprentice (10 October 1992)
Сезон 1, Серия 12: История о королеве выпускного бала / The Tale of the Prom Queen (7 November 1992)
Сезон 1, Серия 13: История о вечном игроке / The Tale of the Pinball Wizard (14 November 1992)
---
Сезон 2, Серия 1: История о последнем желании / The Tale of the Final Wish (19 June 1993)
Сезон 2, Серия 2: История о полуночном кошмаре / The Tale of the Midnight Madness (26 June 1993)
Сезон 2, Серия 3: История о шкафчике №22 / The Tale of Locker 22 (3 July 1993)
Сезон 2, Серия 4: История о тринадцатом этаже / The Tale of the 13th Floor (10 July 1993)
Сезон 2, Серия 5: История о волшебной машинке / The Tale of the Dream Machine (17 July 1993)
Сезон 2, Серия 7: История о шепчущих стенах / The Tale of the Whispering Walls (31 July 1993)
Сезон 2, Серия 8: История о замерзшем привидении / The Tale of the Frozen Ghost (14 August 1993)
Сезон 2, Серия 9: История о полнолунии / The Tale of the Full Moon (21 August 1993)
Сезон 2, Серия 10: История о ярко-красном велосипеде / The Tale of the Shiny Red Bicycle (28 August 1993)
Сезон 2, Серия 11: История о помощнике фокусника / The Tale of the Magician's Assistant (11 September 1993)
Сезон 2, Серия 12: История о питомнике / The Tale of the Hatching (25 September 1993)
Сезон 2, Серия 13: История о старике Коркоране / The Tale of Old Man Corcoran (2 October 1993)
---
Сезон 3, Серия 1: История о прогулке в полночь / The Tale of the Midnight Ride (8 January 1994)
Сезон 3, Серия 2: История о квартире №214 / The Tale of Apartment 214 (15 January 1994)
Сезон 3, Серия 3: История о роще смотрителя / The Tale of Watcher's Woods (22 January 1994)
Сезон 3, Серия 4: История о телефонной полиции / The Tale of the Phone Police (29 January 1994)
Сезон 3, Серия 5: История о кукольнике / The Tale of the Dollmaker (5 February 1994)
Сезон 3, Серия 6: История о няне-любительнице книг / The Tale of the Bookish Babysitter (12 February 1994)
Сезон 3, Серия 8: История о проклятии хранительницы / The Tale of the Guardian's Curse (5 March 1994)
Сезон 3, Серия 11: История о Квиксильвере / The Tale of the Quicksilver (2 April 1994)
Сезон 3, Серия 12: История о малиновом клоуне / The Tale of the Crimson Clown (9 April 1994)
Сезон 3, Серия 13: История об опасном супе / The Tale of the Dangerous Soup (16 April 1994)
---
Сезон 4, Серия 1: История вируса отступника / The Tale of the Renegade Virus (1 October 1994)
Сезон 4, Серия 2: История о старинном медальоне / The Tale of the Long Ago Locket (8 October 1994)
Сезон 4, Серия 3: История о морских демонах / The Tale of the Water Demons (15 October 1994)
Сезон 4, Серия 6: История тихой библиотеки / The Tale of the Quiet Librarian (5 November 1994)
Сезон 4, Серия 7: История о безгласном слуге / The Tale of the Silent Servant (12 November 1994)
Сезон 4, Серия 8: История о квартиранте / The Tale of the Room for Rent (19 November 1994)
Сезон 4, Серия 9: История об Ужасном Зубоскале / The Tale of the Ghastly Grinner (3 December 1994)
Сезон 4, Серия 11: История о хозяевах чулана / The Tale of the Closet Keepers (7 January 1995)
Сезон 4, Серия 12: История о незаконченной картине / The Tale of the Unfinished Painting (14 January 1995)
Сезон 4, Серия 13: История о магии поездов / The Tale of Train Magic (21 January 1995)
---
Сезон 5, Серия 1: История о плавающем мертвеце / The Tale of the Dead Man's Float (2 October 1995)
Сезон 5, Серия 2: История о радиостанции 109.1 / The Tale of Station 109.1 (4 November 1995)
Сезон 5, Серия 4: История о хамелеонах / The Tale of the Chameleons (18 November 1995)
Сезон 5, Серия 5: История о тюремном прошлом / The Tale of Prisoners Past (2 December 1995)
Сезон 5, Серия 6: История о Си-7 / The Tale of C7 (9 December 1995)
Сезон 5, Серия 7: История о Манаха / The Tale of the Manaha (30 December 1995)
Сезон 5, Серия 8: История о неожиданном госте / The Tale of the Unexpected Visitor (13 January 1996)
Сезон 5, Серия 9: История о напрасном обмене / The Tale of the Vacant Lot (20 January 1996)
Сезон 5, Серия 10: История о незапертой двери / The Tale of a Door Unlocked (27 January 1996)
Сезон 5, Серия 11: История о ночном дежурстве / The Tale of the Night Shift (3 February 1996)
Сезон 5, Серия 12: История о зубчатом знаке / The Tale of the Jagged Sign (9 March 1996)
Сезон 5, Серия 13: История о Бадже / The Tale of Badge (20 April 1996)
General
Complete name : E:\кино\Torrent\Are_You_Afraid_of_the_Dark__Season_1-5\1_08_sosedi.mpg
Format : MPEG-PS
File size : 256 MiB
Duration : 23mn 29s
Overall bit rate : 1 522 Kbps
Video
ID : 224 (0xE0)
Format : MPEG Video
Format version : Version 2
Format profile : Main@Main
Format settings, Matrix : Default
Duration : 23mn 29s
Bit rate mode : Variable
Bit rate : 1 333 Kbps
Nominal bit rate : 5 500 Kbps
Width : 352 pixels
Height : 576 pixels
Display aspect ratio : 4:3
Frame rate : 25.000 fps
Colorimetry : 4:2:0
Scan type : Interlaced
Scan order : Top Field First
Bits/(Pixel*Frame) : 0.263
Stream size : 224 MiB (88%)
Audio
ID : 192 (0xC0)
Format : MPEG Audio
Format version : Version 1
Format profile : Layer 2
Duration : 23mn 29s
Bit rate mode : Constant
Bit rate : 128 Kbps
Channel(s) : 1 channel
Sampling rate : 48.0 KHz
Resolution : 16 bits
Stream size : 21.5 MiB (8%)
---------------
General
Complete name : E:\кино\Torrent\Are_You_Afraid_of_the_Dark__Season_1-5\2_01_posl_zhel.mpg
Format : MPEG-PS
File size : 250 MiB
Duration : 22mn 38s
Overall bit rate : 1 542 Kbps
Video
ID : 224 (0xE0)
Format : MPEG Video
Format version : Version 2
Format profile : Main@Main
Format settings, Matrix : Default
Duration : 22mn 38s
Bit rate mode : Variable
Bit rate : 1 353 Kbps
Nominal bit rate : 6 000 Kbps
Width : 352 pixels
Height : 576 pixels
Display aspect ratio : 4:3
Frame rate : 25.000 fps
Colorimetry : 4:2:0
Scan type : Interlaced
Scan order : Top Field First
Bits/(Pixel*Frame) : 0.267
Stream size : 219 MiB (88%)
Audio
ID : 192 (0xC0)
Format : MPEG Audio
Format version : Version 1
Format profile : Layer 2
Duration : 22mn 38s
Bit rate mode : Constant
Bit rate : 128 Kbps
Channel(s) : 1 channel
Sampling rate : 48.0 KHz
Resolution : 16 bits
Stream size : 20.7 MiB (8%)
----------------
General
Complete name : E:\кино\Torrent\Are_You_Afraid_of_the_Dark__Season_1-5\3_01_progulka.mpg
Format : MPEG-PS
File size : 262 MiB
Duration : 23mn 29s
Overall bit rate : 1 562 Kbps
Video
ID : 224 (0xE0)
Format : MPEG Video
Format version : Version 2
Format profile : Main@Main
Format settings, Matrix : Default
Duration : 23mn 29s
Bit rate mode : Variable
Bit rate : 1 372 Kbps
Nominal bit rate : 4 000 Kbps
Width : 352 pixels
Height : 576 pixels
Display aspect ratio : 4:3
Frame rate : 25.000 fps
Colorimetry : 4:2:0
Scan type : Interlaced
Scan order : Top Field First
Bits/(Pixel*Frame) : 0.271
Stream size : 231 MiB (88%)
Audio
ID : 192 (0xC0)
Format : MPEG Audio
Format version : Version 1
Format profile : Layer 2
Duration : 23mn 29s
Bit rate mode : Constant
Bit rate : 128 Kbps
Channel(s) : 1 channel
Sampling rate : 48.0 KHz
Resolution : 16 bits
Stream size : 21.5 MiB (8%)
----------------
General
Complete name : E:\кино\Torrent\Are_You_Afraid_of_the_Dark__Season_1-5\4_01_virus.mpg
Format : MPEG-PS
File size : 264 MiB
Duration : 23mn 20s
Overall bit rate : 1 582 Kbps
Video
ID : 224 (0xE0)
Format : MPEG Video
Format version : Version 2
Format profile : Main@Main
Format settings, Matrix : Default
Duration : 23mn 20s
Bit rate mode : Variable
Bit rate : 1 391 Kbps
Nominal bit rate : 4 000 Kbps
Width : 352 pixels
Height : 576 pixels
Display aspect ratio : 4:3
Frame rate : 25.000 fps
Colorimetry : 4:2:0
Scan type : Interlaced
Scan order : Top Field First
Bits/(Pixel*Frame) : 0.274
Stream size : 232 MiB (88%)
Audio
ID : 192 (0xC0)
Format : MPEG Audio
Format version : Version 1
Format profile : Layer 2
Duration : 23mn 20s
Bit rate mode : Constant
Bit rate : 128 Kbps
Channel(s) : 1 channel
Sampling rate : 48.0 KHz
Resolution : 16 bits
Stream size : 21.4 MiB (8%)
----------------
General
Complete name : E:\кино\Torrent\Are_You_Afraid_of_the_Dark__Season_1-5\5_01_mertv.mpg
Format : MPEG-PS
File size : 250 MiB
Duration : 23mn 33s
Overall bit rate : 1 483 Kbps
Video
ID : 224 (0xE0)
Format : MPEG Video
Format version : Version 2
Format profile : Main@Main
Format settings, Matrix : Default
Duration : 23mn 33s
Bit rate mode : Variable
Bit rate : 1 296 Kbps
Nominal bit rate : 5 000 Kbps
Width : 352 pixels
Height : 576 pixels
Display aspect ratio : 4:3
Frame rate : 25.000 fps
Colorimetry : 4:2:0
Scan type : Interlaced
Scan order : Top Field First
Bits/(Pixel*Frame) : 0.256
Stream size : 218 MiB (87%)
Audio
ID : 192 (0xC0)
Format : MPEG Audio
Format version : Version 1
Format profile : Layer 2
Duration : 23mn 32s
Bit rate mode : Constant
Bit rate : 128 Kbps
Channel(s) : 1 channel
Sampling rate : 48.0 KHz
Resolution : 16 bits
Stream size : 21.6 MiB (9%)
Сэмпл (18 Mb)



Скачать Боишься.ли.ты.темноты?.Are.you.afraid.of.the.dark?.(Не.полные.5.сезонов).(D.J.MacHale;.David.Winning).[1992-1996.Семейный.Мистика.Ужасы.TV.VHSRip].torrent без регистрации
Золото ЗОЛОТАЯ РАЗДАЧА! СКАЧАННОЕ НЕ ЗАСЧИТЫВАЕТСЯ! Золото
Дата: Зарегистрирован   [ Тип: внутренний ] Как тут cкачать?
MAGNET ссылка
MAGNET ссылка


Скачать .torrent

62 KB

Статус: проверено DHT
Скачан: торрент - 573 раз, раздача полностью - 608 раз
Размер: 11,94 GB
Оценка:  5 (Голосов: 2)
Поблагодарили: 2
Поделиться ссылкой на эту раздачу с друзьями:
В контактеFacebookОдноклассникиTwitterLivejournalМой МирLiveinternet
 

 
Показать сообщения:    


Вы не можете начинать темы
Вы не можете отвечать на сообщения
Вы не можете редактировать свои сообщения
Вы не можете удалять свои сообщения
Вы не можете голосовать в опросах
Вы не можете прикреплять файлы к сообщениям
Вы можете скачивать файлы