Loading...
Error

Скачать Волчонок / Teen Wolf (сезон 01 полный) (Рассел Малкэй) [2011, драма, фэнтези, WEB-DLRip] [VO-Production + Ancord] торрент без регистрации

 
Статистика раздачи
Размер:  4,53 GB   |    Скачан:  275 раз
Сидов:  1  [  0 KB/s  ]  
 
Автор Сообщение

МихаНЕзатор

[] 

Информация о фильме
Название: Волчонок
Оригинальное название: Teen Wolf
Год выхода: 2011
Жанр: Драма, фэнтези
Режиссер: Рассел Малкэй
В ролях: Тайлер Пози, Кристал Рид, Дилан ОБрайэн, Колтон Хэйнс, Холлэнд Роден, Линден Эшби, Тайлер Хёхлин, ДжейАр Борн, Мелисса Понцио и др.[/i]

Описание: Скотт был просто обычным парнем, пока один укус не изменил его жизнь навсегда. Теперь он изо всех сил пытается понять, кто он и кем он может стать. В нем больше волка чем человека - или все совсем наоборот? Как бы то ни было, легко не будет. Скотт попытается управлять своими наклонностями, но больше всего он боится, что эти его новые наклонности, в конце концов, начнут управлять им. "Волчонок" - история Скотта, то как он пытается идти по узкой границе между тем, чего он хочет и чего он не может не хотеть. Станет ли случившееся с ним благословением? Или это будет проклятие? И как это отразится на его отношениях с Аллисон - девушкой, которую он так любит? Только время покажет, должен ли он принять свои новообретенные способности, или бояться их.[i]



Страна: США
Продолжительность: ~ 00:44:00
Перевод: Профессиональный (многоголосый закадровый) - VO-production + Ancord

Файл
Кодек: XviD
Качество:
Видео: 720*400 (1.80), 23.976 fps, XviD MPEG-4, ~1424 kbps, 0.21 bit/pixel
Звук: 48 kHz, MPEG Layer 3, 2/0 (L,R) ch, 192.00 kbps avg
Субтитры: Отсутствуют

01. Пилот / Pilot
02. Второй Шанс в нападении / Second Chance At First Line
03. Заблуждение / Pack Mentality
04. Волшебная пуля / Magic Bullet
05. Беседа / The Tell
06. Кардиомонитор / Heart Monitor
07. Вечерняя школа / Night School
08. Невменяемый / Lunatic
09. Волчья отрава / Wolf's Bane
10. Со-капитан / Co-Captain
11. Бал / Formality
12. Нарушитель кодекса / Code Breaker
General
Complete name : I:ЗакачкиTeen Wolf (VO-production)Teen_Wolf_1x01_WEB-DLrip_VO-production.avi
Format : AVI
Format/Info : Audio Video Interleave
File size : 385 MiB
Duration : 41mn 19s
Overall bit rate : 1 301 Kbps
Writing application : VirtualDubMod 1.5.10.2 (build 2540/release)
Writing library : VirtualDubMod build 2540/release

Video
Format : MPEG-4 Visual
Format profile : Streaming Video@L1
Format settings, BVOP : Yes
Format settings, QPel : No
Format settings, GMC : No warppoints
Format settings, Matrix : Default (H.263)
Muxing mode : Packed bitstream
Codec ID : XVID
Codec ID/Hint : XviD
Duration : 41mn 19s
Bit rate : 1 100 Kbps
Width : 720 pixels
Height : 400 pixels
Display aspect ratio : 16/9
Frame rate : 23.976 fps
Resolution : 24 bits
Colorimetry : 4:2:0
Scan type : Progressive
Bits/(Pixel*Frame) : 0.159
Stream size : 325 MiB (85%)
Writing library : XviD 1.2.0.dev47 (UTC 2006-11-01)

Audio
Format : AC-3
Format/Info : Audio Coding 3
Codec ID : 2000
Duration : 41mn 19s
Bit rate mode : Constant
Bit rate : 192 Kbps
Channel(s) : 2 channels
Channel positions : L R
Sampling rate : 48.0 KHz
Stream size : 56.7 MiB (15%)
Alignment : Split accross interleaves
Interleave, duration : 42 ms (1.00 video frame)
Interleave, preload duration : 500 ms
Раздача ведётся путём добавления новых серий; при каждом добавлении создаётся новый торрент. Чтобы начать докачку новой серии, пользователям необходимо сделать следующее:
(1) остановить скачивание,
(2) удалить старый торрент у себя из клиента (старые серии удалять не надо),
(3) скачать новый торрент и запустить его у себя в клиенте вместо старого, при этом указать клиенту путь в старую папку куда и должно происходить скачивание новых серий.
Ваш клиент при этом должен произвести хеширование (проверку) старой папки (если не производит сам - помогите ему сделать это), и будет докачивать только те серии которых у вас ещё нет. Старые серии при этом не удаляются, а продолжают раздаваться!
Eсли вы уже удалили старые серии, то предотвратить повторную закачку старых серий можно, отжав галочку в соответствующих местах при запуске нового торрента. По возможности, желательно не удалять старые серии как можно дольше чтобы релизёр не столько продолжал раздавать старые серии, а смог сконцентрироваться на новых.


ПРИЯТНОГО ПРОСМОТРА



Скачать Волчонок.Teen.Wolf.(сезон.01.полный).(Рассел.Малкэй).[2011.драма.фэнтези.WEB-DLRip].[VO-Production.+.Ancord].torrent без регистрации
Золото ЗОЛОТАЯ РАЗДАЧА! СКАЧАННОЕ НЕ ЗАСЧИТЫВАЕТСЯ! Золото
Дата: Зарегистрирован   [ Тип: внутренний ] Как тут cкачать?
MAGNET ссылка
MAGNET ссылка


Скачать .torrent

24 KB

Статус: проверено DHT
Скачан: торрент - 275 раз, раздача полностью - 346 раз
Размер: 4,53 GB
Оценка:  5 (Голосов: 1)
Поблагодарили: 1
Поделиться ссылкой на эту раздачу с друзьями:
В контактеFacebookОдноклассникиTwitterLivejournalМой МирLiveinternet
 

 
Показать сообщения:    


Вы не можете начинать темы
Вы не можете отвечать на сообщения
Вы не можете редактировать свои сообщения
Вы не можете удалять свои сообщения
Вы не можете голосовать в опросах
Вы не можете прикреплять файлы к сообщениям
Вы можете скачивать файлы