Loading...
Error

Скачать Граффити (Игорь Апасян) [2006, драма, комедия, DVDRip] торрент без регистрации

 
Статистика раздачи
Размер:  746 MB   |    Скачан:  122 раза

Полного источника не было: 25 минут

 
Автор Сообщение

МихаНЕзатор

[] 

Информация о фильме
Название: Граффити
Год выхода: 2006
Жанр: драма, комедия
Режиссер: Игорь Апасян
В ролях: Андрей Новиков, Александр Ильин, Лариса Гузеева, Виктор Перевалов, Иван Николаев, Ольга Юрасова, Александр Кащеев, Александр Соловьев, Клаудиа Бочар, Степан Рожнов

О фильме:
Художник-дипломник ловит кайф, расписывая в стиле граффити стенки столичной подземки. Но у улицы свои законы, надо знать территорию. В разборке с местными байкерами Андрей получает подбитый глаз, подвернутую ногу и лишается поездки в Италию с выпускным курсом и любимой девушкой. Вместо Венеции Андрея отправляют писать родные просторы в провинцию. Но и здесь он не может обойтись без приключений, только они уже совсем другие



Страна: Россия
Продолжительность: 02:00:58
Перевод: Не требуется

Файл
Кодек: XviD / MP3
Качество: DVDRip
Видео: XviD, 640x352 (16:9), 25.000 fps, 727 Kbps (0.129 bit/pixel)
Звук: MP3, 48.0 KHz, 2 ch, 128 Kbps, CBR (Russian)
General
Complete name : E:Граффити_[Rutor.org].avi
Format : AVI
Format/Info : Audio Video Interleave
File size : 746 MiB
Duration : 2h 0mn
Overall bit rate : 862 Kbps
Writing application : VirtualDubMod 1.5.4.1 (build 2178/release)
Writing library : VirtualDubMod build 2178/release

Video
ID : 0
Format : MPEG-4 Visual
Format profile : Advanced Simple@L5
Format settings, BVOP : 1
Format settings, QPel : No
Format settings, GMC : No warppoints
Format settings, Matrix : Custom
Codec ID : XVID
Codec ID/Hint : XviD
Duration : 2h 0mn
Bit rate : 727 Kbps
Width : 640 pixels
Height : 352 pixels
Display aspect ratio : 16:9
Frame rate : 25.000 fps
Color space : YUV
Chroma subsampling : 4:2:0
Bit depth : 8 bits
Scan type : Progressive
Compression mode : Lossy
Bits/(Pixel*Frame) : 0.129
Stream size : 629 MiB (84%)
Writing library : XviD 64

Audio
ID : 1
Format : MPEG Audio
Format version : Version 1
Format profile : Layer 3
Mode : Joint stereo
Mode extension : MS Stereo
Codec ID : 55
Codec ID/Hint : MP3
Duration : 2h 0mn
Bit rate mode : Constant
Bit rate : 128 Kbps
Channel(s) : 2 channels
Sampling rate : 48.0 KHz
Compression mode : Lossy
Stream size : 111 MiB (15%)
Alignment : Aligned on interleaves
Interleave, duration : 80 ms (2.00 video frames)
Interleave, preload duration : 504 ms
Writing library : LAME3.98r
Encoding settings : -m j -V 4 -q 2 -lowpass 17 -b 128
Language : Russian


ПРИЯТНОГО ПРОСМОТРА



Скачать Граффити.(Игорь.Апасян).[2006.драма.комедия.DVDRip].torrent без регистрации
Золото ЗОЛОТАЯ РАЗДАЧА! СКАЧАННОЕ НЕ ЗАСЧИТЫВАЕТСЯ! Золото
Дата: Зарегистрирован   [ Тип: внутренний ] Как тут cкачать?
MAGNET ссылка
MAGNET ссылка


Скачать .torrent

15 KB

Статус: проверено DHT
Скачан: торрент - 122 раз, раздача полностью - 72 раз
Размер: 746 MB
Оценка:  5 (Голосов: 1)
Поблагодарили: 2
Поделиться ссылкой на эту раздачу с друзьями:
В контактеFacebookОдноклассникиTwitterLivejournalМой МирLiveinternet
 

 
Показать сообщения:    


Вы не можете начинать темы
Вы не можете отвечать на сообщения
Вы не можете редактировать свои сообщения
Вы не можете удалять свои сообщения
Вы не можете голосовать в опросах
Вы не можете прикреплять файлы к сообщениям
Вы можете скачивать файлы