Loading...
Error

Скачать Восхождение Чёрной Луны / Wolf Moon / Dark Moon Rising (Dana Mennie / Дана Менни) [2009, Криминал, Ужасы, Триллер, DVDRip] торрент без регистрации

 
Статистика раздачи
Размер:  1,84 GB   |    Скачан:  136 раз
Сидов:  1  [  0 KB/s  ]  
 
Автор Сообщение

Marsianka

[] 



Восхождение Чёрной Луны / Wolf Moon / Dark Moon Rising [2009, США, Криминал, Ужасы, Триллер, DVDRip]

Страна: США
Жанр: Криминал, Ужасы, Триллер
Год выпуска: 2009
Продолжительность: 2:04:49

Перевод: Профессиональный (двухголосый закадровый)
Cубтитры: нет
Оригинальная дорожка : английский - отдельно
Режиссер: Dana Mennie / Дана Менни

В ролях: Макс Райан, Мария Кончита Алонсо, Крис Малки, Сид Хэйг, Джинни Вирик, Крис Дивечио, Билли Драго, Лин Шей, Ариэль Ванденберг, Рикки Гань, Майкл Хиршенсон, Мэтт Алан, Норман Мора, Рич Ул, Линда Ул

Описание: Провинциальная девушка знакомится с загадочным бродягой, они влюбляются. Только в этом случае, парень приносит с собой семейное проклятье и невообразимый кошмар, который обрушивается на маленький городок.



СЭМПЛ

Автор рипа ; chopper887

Качество видео: DVDRip(Исх. DVD9_Dark Moon Rising (2009) NTSC 2Lions-Team)
Формат видео: AVI

Видео: 720x400 (1.80:1), 23.976 fps, XviD build 50 ~1529 kbps avg, 0.22 bit/pixel
Аудио: 44.100 kHz, MPEG Layer 3, 2 ch, ~128.00 kbps avg RUS
Аудио: AC3 Dolby Digital, 3/2 (L,C,R,l,r) + LFE ch, ~448.00 kbps ENG - отдельно

File: Dark Moon Rising.chopper887.avi
Filesize: 1488.48 Mb ( 1 560 780 800 bytes )
Play length: 02:04:49.648 (179572 frames)
Subtitles: Not Present
Video: 720x400 (1.80:1), 23.976 fps, XviD build 50 ~1529 kbps avg, 0.22 bit/pixel
Audio: 44.100 kHz, MPEG Layer 3, 2 ch, ~128.00 kbps avg

General
Complete name : J:Dark Moon Rising.chopper887Dark Moon Rising.chopper887.avi
Format : AVI
Format/Info : Audio Video Interleave
File size : 1.45 GiB
Duration : 2h 4mn
Overall bit rate : 1 667 Kbps
Writing application : VirtualDubMod 1.5.10.2 (build 2540/release)
Writing library : VirtualDubMod build 2540/release

Video
ID : 0
Format : MPEG-4 Visual
Format profile : AdvancedSimple@L5
Format settings, BVOP : Yes
Format settings, QPel : No
Format settings, GMC : No warppoints
Format settings, Matrix : Custom
Codec ID : XVID
Codec ID/Hint : XviD
Duration : 2h 4mn
Bit rate : 1 530 Kbps
Width : 720 pixels
Height : 400 pixels
Display aspect ratio : 16:9
Frame rate : 23.976 fps
Resolution : 24 bits
Colorimetry : 4:2:0
Scan type : Progressive
Bits/(Pixel*Frame) : 0.222
Stream size : 1.33 GiB (92%)
Writing library : XviD 1.2.1 (UTC 2008-12-04)

Audio
ID : 1
Format : MPEG Audio
Format version : Version 1
Format profile : Layer 3
Format_Settings_Mode : Joint stereo / MS Stereo
Codec ID : 55
Codec ID/Hint : MP3
Duration : 2h 4mn
Bit rate mode : Constant
Bit rate : 128 Kbps
Channel(s) : 2 channels
Sampling rate : 44.1 KHz
Resolution : 16 bits
Stream size : 114 MiB (8%)
Alignment : Split accross interleaves
Interleave, duration : 42 ms (1.00 video frame)
Interleave, preload duration : 500 ms
Writing library : LAME3.98.2



Скачать Восхождение.Чёрной.Луны.Wolf.Moon.Dark.Moon.Rising.(Dana.Mennie.Дана.Менни).[2009.Криминал.Ужасы.Триллер.DVDRip].torrent без регистрации
Золото ЗОЛОТАЯ РАЗДАЧА! СКАЧАННОЕ НЕ ЗАСЧИТЫВАЕТСЯ! Золото
Дата: Зарегистрирован   [ Тип: внутренний ] Как тут cкачать?
MAGNET ссылка
MAGNET ссылка


Скачать .torrent

19 KB

Статус: проверено DHT
Скачан: торрент - 136 раз, раздача полностью - 22 раз
Размер: 1,84 GB
Оценка:  - (Голосов: 0)
Поблагодарили: 1
Поделиться ссылкой на эту раздачу с друзьями:
В контактеFacebookОдноклассникиTwitterLivejournalМой МирLiveinternet
 

 
Показать сообщения:    


Вы не можете начинать темы
Вы не можете отвечать на сообщения
Вы не можете редактировать свои сообщения
Вы не можете удалять свои сообщения
Вы не можете голосовать в опросах
Вы не можете прикреплять файлы к сообщениям
Вы можете скачивать файлы