Loading...
Error

Скачать 500 дней лета / (500) Days of Summer (Марк Уэбб) [2009, мелодрама, драма, комедия, BDRip] [AVC] [HQCLUB] торрент без регистрации

 
Статистика раздачи
Размер:  2,5 GB   |    Скачан:  171 раз
Сидов:  1  [  0 KB/s  ]  
 
Автор Сообщение

Marsianka

[] 

500 дней лета / (500) Days of Summer (2009) BDRip-AVC
от HQCLUB


Информация о фильме:
Название: 500 дней лета
Оригинальное название: (500) Days of Summer
Год выхода: 2009
Жанр: мелодрама, драма, комедия
Режиссер: Марк Уэбб
В ролях: Джозеф Гордон-Левитт, Зои Дешанель, Джеффри Аренд, Хлоя Моретц, Мэттью Грей Габлер, Кларк Грегг, Патриция Белчер, Рейчел Бостон, Минка Келли, Чарльз Уолкер

О фильме:
Главный герой работает в агентстве, выпускающем поздравительные открытки. Он придумывает все те забавные подписи, которые мы с Вами читаем на них. Молодой человек влюбляется в свою коллегу и решает, что она «та, единственная&raquo. Но 500 дней их отношений показывают герою, что путь к счастью непредсказуем, неконтролируем и невероятно забавен!

«Это не любовная история, это история о любви»




Релиз от -
Автор рипа: MOSFET

Выпущено: США
Продолжительность: 01:35:04
Перевод: Профессиональный (полное дублирование) + Оригинальная звуковая дорожка
Субтитры: Русские, русские (надписи и пр.), украинские, английские

Файл:
Формат: MKV
Качество: BDRip-AVC (источник: -DaRkY- / Blu-Ray Remux / 1080p)
Видео: 1024x426 (2.40:1), 23.976 fps, x264@L4.1, 2pass, ~3000 kbps avg, 0.28 bit/pixel
Звук #1: 48 kHz, AC3, 3/2 (L,C,R,l,r) + LFE ch, ~384.00 kbps avg (RUS)
Звук #2: 48 kHz, AC3, 3/2 (L,C,R,l,r) + LFE ch, ~384.00 kbps avg (ENG)
Размер: 2.50 Gb
Скачать: Сэмпл
Полное имя : D:Видео500.dnej.leta.2009.DUAL.BDRip-AVC.x264.AC3.-HQCLUB.mkv
Формат : Matroska
Версия формата : Version 2
Размер файла : 2,50 Гбайт
Продолжительность : 1 ч. 35 м.
Общий поток : 3767 Кбит/сек
Дата кодирования : UTC 2011-09-14 04:34:37
Программа кодирования : mkvmerge v4.9.1 ('Ich will') сборка от Jul 11 2011 23:53:15
Библиотека кодирования : libebml v1.2.1 + libmatroska v1.1.1

Видео
Идентификатор : 1
Формат : AVC
Формат/Информация : Advanced Video Codec
Профиль формата : High@L4.1
Параметр CABAC формата : Да
Параметр ReFrames формата : 4 кадра
Идентификатор кодека : V_MPEG4/ISO/AVC
Продолжительность : 1 ч. 35 м.
Битрейт : 3000 Кбит/сек
Ширина : 1024 пикселя
Высота : 426 пикселей
Соотношение сторон : 2,40:1
Частота кадров : 23,976 кадра/сек
Цветовое пространство : YUV
Субдискретизация насыщенности : 4:2:0
Битовая глубина : 8 бит
Тип развёртки : Прогрессивная
Бит/(Пиксели*Кадры) : 0.287
Размер потока : 1,94 Гбайт (78%)
Заголовок : 500 дней лета / (500) Days of Summer (2009) BDRip-AVC by MOSFET | HQCLUB.NET
Библиотека кодирования : x264 core 116 r2074 2641b9e
Настройки программы : cabac=1 / ref=4 / deblock=1:-3:-3 / analyse=0x3:0x113 / me=umh / subme=10 / psy=1 / psy_rd=1.00:0.00 / mixed_ref=1 / me_range=32 / chroma_me=1 / trellis=2 / 8x8dct=1 / cqm=0 / deadzone=21,11 / fast_pskip=0 / chroma_qp_offset=-2 / threads=6 / sliced_threads=0 / nr=0 / decimate=1 / interlaced=0 / bluray_compat=0 / constrained_intra=0 / bframes=8 / b_pyramid=2 / b_adapt=2 / b_bias=0 / direct=3 / weightb=1 / open_gop=0 / weightp=2 / keyint=250 / keyint_min=23 / scenecut=40 / intra_refresh=0 / rc_lookahead=40 / rc=2pass / mbtree=0 / bitrate=3000 / ratetol=1.0 / qcomp=0.60 / qpmin=0 / qpmax=69 / qpstep=4 / cplxblur=20.0 / qblur=0.5 / vbv_maxrate=50000 / vbv_bufsize=62500 / nal_hrd=none / ip_ratio=1.40 / pb_ratio=1.30 / aq=1:0.80
Язык : English

Аудио #1
Идентификатор : 2
Формат : AC-3
Формат/Информация : Audio Coding 3
Расширение режима : CM (complete main)
Идентификатор кодека : A_AC3
Продолжительность : 1 ч. 35 м.
Вид битрейта : Постоянный
Битрейт : 384 Кбит/сек
Каналы : 6 каналов
Расположение каналов : Front: L C R, Side: L R, LFE
Частота : 48,0 КГц
Битовая глубина : 16 бит
Метод сжатия : С потерями
Размер потока : 261 Мбайт (10%)
Заголовок : Полное дублирование
Язык : Russian

Аудио #2
Идентификатор : 3
Формат : AC-3
Формат/Информация : Audio Coding 3
Расширение режима : CM (complete main)
Идентификатор кодека : A_AC3
Продолжительность : 1 ч. 35 м.
Вид битрейта : Постоянный
Битрейт : 384 Кбит/сек
Каналы : 6 каналов
Расположение каналов : Front: L C R, Side: L R, LFE
Частота : 48,0 КГц
Битовая глубина : 16 бит
Метод сжатия : С потерями
Размер потока : 261 Мбайт (10%)
Заголовок : Оригинал
Язык : English

Текст #1
Идентификатор : 4
Формат : UTF-8
Идентификатор кодека : S_TEXT/UTF8
Идентификатор кодека/Информация : UTF-8 Plain Text
Заголовок : Русские
Язык : Russian

Текст #2
Идентификатор : 5
Формат : UTF-8
Идентификатор кодека : S_TEXT/UTF8
Идентификатор кодека/Информация : UTF-8 Plain Text
Заголовок : Русские (Надписи и пр.)
Язык : Russian

Текст #3
Идентификатор : 6
Формат : UTF-8
Идентификатор кодека : S_TEXT/UTF8
Идентификатор кодека/Информация : UTF-8 Plain Text
Заголовок : Украинские
Язык : Ukrainian

Текст #4
Идентификатор : 7
Формат : UTF-8
Идентификатор кодека : S_TEXT/UTF8
Идентификатор кодека/Информация : UTF-8 Plain Text
Заголовок : Английские
Язык : English

Меню
00:00:00.000 : en:Main Titles/ The One
00:03:57.779 : en:Consoling Tom
00:07:05.425 : en:Rare Quality
00:09:19.184 : en:Early Days
00:13:34.147 : en:Officially in Love
00:14:22.320 : en:High and Low
00:16:53.429 : en:Office Karaoke
00:19:18.699 : en:Agree to Disagree
00:24:29.927 : en:Progress Report
00:27:00.285 : en:Shopping
00:30:39.755 : en:Keeping it Casual
00:33:27.422 : en:Just Having Fun
00:35:33.506 : en:Lock Up
00:38:14.375 : en:Summer's World
00:43:46.874 : en: Defining Moment
00:52:24.141 : en:Suffering
00:56:47.154 : en:Second Opinion
01:00:26.039 : en:Chance Encounter
01:06:24.731 : en:Expectations/Reality
01:10:49.787 : en:The Cynic
01:15:15.052 : en:Not the One
01:19:00.778 : en:Fresh Start
01:21:22.920 : en:I Just Knew
01:27:08.557 : en:First Day of Autumn/End Titles

frame I:1053 Avg QP:14.67 size: 75672
frame P:26219 Avg QP:15.94 size: 30040
frame B:109500 Avg QP:17.83 size: 11405

consecutive B-frames: 1.7% 0.9% 3.8% 11.7% 15.2% 49.8% 10.2% 2.8% 3.9%

ref P L0: 50.7% 12.3% 25.5% 10.9% 0.6% 0.0%
ref B L0: 82.1% 14.6% 3.3%
ref B L1: 89.8% 10.2%



Скачать 500.дней.лета.(500).Days.of.Summer.(Марк.Уэбб).[2009.мелодрама.драма.комедия.BDRip].[AVC].[HQCLUB].torrent без регистрации
Золото ЗОЛОТАЯ РАЗДАЧА! СКАЧАННОЕ НЕ ЗАСЧИТЫВАЕТСЯ! Золото
Дата: Зарегистрирован   [ Тип: внутренний ] Как тут cкачать?
MAGNET ссылка
MAGNET ссылка


Скачать .torrent

13 KB

Статус: проверено DHT
Скачан: торрент - 171 раз, раздача полностью - 259 раз
Размер: 2,5 GB
Оценка:  - (Голосов: 0)
Поблагодарили: 2
Поделиться ссылкой на эту раздачу с друзьями:
В контактеFacebookОдноклассникиTwitterLivejournalМой МирLiveinternet
 

 
Показать сообщения:    


Вы не можете начинать темы
Вы не можете отвечать на сообщения
Вы не можете редактировать свои сообщения
Вы не можете удалять свои сообщения
Вы не можете голосовать в опросах
Вы не можете прикреплять файлы к сообщениям
Вы можете скачивать файлы