Loading...
Error

Скачать Моя веселая жизнь / My Life So Far (Хью Хадсон / Hugh Hudson) [1999, драма, комедия, биография, DVDRip] торрент без регистрации

 
Статистика раздачи
Размер:  1,37 GB   |    Скачан:  128 раз
Сидов:  1  [  0 KB/s  ]  
 
Автор Сообщение

Marsianka

[] 

Информация о фильме
Название: Моя веселая жизнь
Оригинальное название: My Life So Far
Год выхода: 1999
Жанр: драма, комедия, биография
Режиссер: Хью Хадсон / Hugh Hudson
В ролях: Колин Ферт, Розмари Харрис, Ирен Жакоб, Мэри Элизабет Мастрантонио, Малкольм МакДауэлл, Роберт Норман, Чеки Карио, Келли МакДональд, Джон Бетт, Морай Хантер, Брендан Глисон, Элейн М. Эллис, Джули Уилсон Ниммо, Фредди Джоунс, Ральф Рэйк, Клайв Расселл, Эрик Барлоу, Виктория Кэмпбелл, Шон Скэнлэн

О фильме:
10-летний Фрейзер живет в родовом поместье с родителями и многочисленными родственниками. С неутомимым изобретателем-отцом скучать не приходилось.

Но однажды, когда дядя Моррис привозит очаровательную француженку Элоизу, в доме начинается легкая паника. Все мужское население, включая Фрейзера, влюбляется в гостью. И эти взрослые тайны и интриги становятся для мальчика настоящим большим приключением


Страна: США, Великобритания
Студия: Miramax Films
Продолжительность: 01:34:17
Перевод: Профессиональный (многоголосый, закадровый)

Файл
Кодек: DivX / AC-3
Качество: DVDRip
Видео: DivX 5, 704x512 (3:2), 25.000 fps, 1 681 Kbps (0.187 bit/pixel)
Звук: AC-3, 48.0 KHz, 6 ch, 384 Kbps, CBR
General
Complete name : e:Moya.veselaya.zhizn.1999.DivX.DVDRip.BestVideo.avi
Format : AVI
Format/Info : Audio Video Interleave
File size : 1.37 GiB
Duration : 1h 34mn
Overall bit rate : 2 075 Kbps
Writing application : Nandub v2.01 The advanced compression technology is developed by Neiromaster
Writing library : Nandub 2.01 modified by Neiromaster

Video
ID : 0
Format : MPEG-4 Visual
Format settings, BVOP : 1
Format settings, QPel : No
Format settings, GMC : No warppoints
Format settings, Matrix : Default (H.263)
Muxing mode : Packed bitstream
Codec ID : DX50
Codec ID/Hint : DivX 5
Duration : 1h 34mn
Bit rate : 1 681 Kbps
Width : 704 pixels
Height : 512 pixels
Display aspect ratio : 3:2
Frame rate : 25.000 fps
Color space : YUV
Chroma subsampling : 4:2:0
Bit depth : 8 bits
Scan type : Progressive
Compression mode : Lossy
Bits/(Pixel*Frame) : 0.187
Stream size : 1.11 GiB (81%)
Writing library : DivX 6.8.2 (UTC 2008-05-17)

Audio
ID : 1
Format : AC-3
Format/Info : Audio Coding 3
Mode extension : CM (complete main)
Codec ID : 2000
Duration : 1h 34mn
Bit rate mode : Constant
Bit rate : 384 Kbps
Channel(s) : 6 channels
Channel positions : Front: L C R, Side: L R, LFE
Sampling rate : 48.0 KHz
Bit depth : 16 bits
Compression mode : Lossy
Stream size : 259 MiB (19%)
Alignment : Split accross interleaves
Interleave, duration : 40 ms (1.00 video frame)



Скачать Моя.веселая.жизнь.My.Life.So.Far.(Хью.Хадсон.Hugh.Hudson).[1999.драма.комедия.биография.DVDRip].torrent без регистрации
Золото ЗОЛОТАЯ РАЗДАЧА! СКАЧАННОЕ НЕ ЗАСЧИТЫВАЕТСЯ! Золото
Дата: Зарегистрирован   [ Тип: внутренний ] Как тут cкачать?
MAGNET ссылка
MAGNET ссылка


Скачать .torrent

14 KB

Статус: проверено DHT
Скачан: торрент - 128 раз, раздача полностью - 5 раз
Размер: 1,37 GB
Оценка:  - (Голосов: 0)
Поблагодарили: 1
Поделиться ссылкой на эту раздачу с друзьями:
В контактеFacebookОдноклассникиTwitterLivejournalМой МирLiveinternet
 

 
Показать сообщения:    


Вы не можете начинать темы
Вы не можете отвечать на сообщения
Вы не можете редактировать свои сообщения
Вы не можете удалять свои сообщения
Вы не можете голосовать в опросах
Вы не можете прикреплять файлы к сообщениям
Вы можете скачивать файлы