Loading...
Error

Скачать Наше счастливое время / Страстной Четверг / Maundy Thursday / Our Happy Time / Urideul-ui haengbok-han shigan (Сон Хэ Сон / Song Hae-seong) [2006, Драма, DVDRip] торрент без регистрации

 
Статистика раздачи
Размер:  1,37 GB   |    Скачан:  137 раз
Сидов:  1  [  0 KB/s  ]  
 
Автор Сообщение

Marsianka

[] 



Наше счастливое время / Страстной Четверг / Maundy Thursday / Our Happy Time / Urideul-ui haengbok-han shigan (2006) DVDRip


Информация о фильме
Название: Наше счастливое время / Страстной Четверг
Оригинальное название: Urideul-ui haengbok-han shigan
Год выхода: 2006
Жанр: Драма
Режиссеры: Сон Хэ Сон / Song Hae-seong
В ролях: Кан Дон Вон / Kang Dong Won, Ли На Ён / Lee Na Young

Описание:

Ю Чжён, молодая избалованная женщина из богатой семьи, трижды пытавшаяся покончить жизнь самоубийством, знакомится благодаря своей тёте, сестре Монике, с заключённым-смертником Юн Су. Родители Чон Юн Су ещё ребёнком выкинули его из дома вместе с младшим братишкой, он рос сиротой в трущобах и оказался втянут в преступление, в результате которого были зверски убиты три человека. Открывая друг другу свои душевные раны, через сострадание они учатся любить жизнь и прощать.



Выпущено: Южная Корея
Продолжительность: 02:03:25
Перевод: Любительский (одноголосый закадровый) - D.I.M. по субтитрам Feng Huang Fei
Cубтитры: нет

Файл
Качество: DVDRip
Формат: AVI
Видео: 720x320 (2,25:1), 23,976 fps, XviD MPEG-4 ~1451 kbps avg, 0.263 bit/pixel
Аудио: MPEG Audio Layer 3, 48000Hz, stereo, 128kbps

Общее
Кол-во : 277
Кол-во потоков такого типа : 1
Тип потока : General
Тип потока : Общее
Идентификатор типа потока : 0
Inform : AVI: 1,37 Гбайт, 2 ч. 3 м.
Кол-во видеопотоков : 1
Кол-во аудиопотоков : 1
Video_Format_List : MPEG-4 Visual
Video_Format_WithHint_List : MPEG-4 Visual (XviD)
Видеокодеки : XviD
Audio_Format_List : MPEG Audio
Audio_Format_WithHint_List : MPEG Audio (MP3)
Аудиокодеки : MPEG-1 Audio layer 3
Audio_Language_List : Russian
Полное имя : H:TORENTРАЗДАЧИ (РИПЫ)Maundy Thursday.avi
Имя папки : H:TORENTРАЗДАЧИ (РИПЫ)
Имя файла : Maundy Thursday
Расширение : avi
Формат : AVI
Формат : AVI
Формат/Информация : Audio Video Interleave
Формат/Используется в : avi
Коммерческое название : AVI
Интернет-тип носителя : video/vnd.avi
Чередующаяся : Yes
Кодек : AVI
Кодек : AVI
Кодек/Информация : Audio Video Interleave
Кодек/Используется в : avi
Размер файла : 1468028928
Размер файла : 1,37 Гбайт
Размер файла : 1 Гбайт
Размер файла : 1,4 Гбайт
Размер файла : 1,37 Гбайт
Размер файла : 1,367 Гбайт
Продолжительность : 7405992
Продолжительность : 2 ч. 3 м.
Продолжительность : 2 ч. 3 м. 25 с. 992 мс.
Продолжительность : 2 ч. 3 м.
Продолжительность : 02:03:25.992
Общий поток : 1585774
Общий поток : 1586 Кбит/сек
Размер потока : 6492680
Размер потока : 6,19 Мбайт (0%)
Размер потока : 6 Мбайт
Размер потока : 6,2 Мбайт
Размер потока : 6,19 Мбайт
Размер потока : 6,192 Мбайт
Размер потока : 6,19 Мбайт (0%)
Пропорции потока : 0.00442
Дата файла : UTC 2011-09-12 11:20:39.125
Дата файла (местная) : 2011-09-12 15:20:39.125
Дата изменения файла : UTC 2011-09-12 12:31:25.578
Дата изменения файла (местная) : 2011-09-12 16:31:25.578
Программа кодирования : VirtualDubMod 1.5.4.1 (build 2178/release)
Библиотека кодирования : VirtualDubMod build 2178/release
Библиотека кодирования : VirtualDubMod build 2178/release

Видео
Кол-во : 193
Кол-во потоков такого типа : 1
Тип потока : Video
Тип потока : Видео
Идентификатор типа потока : 0
Inform : 1451 Кбит/сек, 720*320 (2,25:1), в 23,976 кадр/сек, MPEG-4 Visual (XviD) (Advanced Simple@L5) (BVOP1 / Custom Matrix)
Идентификатор : 0
Идентификатор : 0
Формат : MPEG-4 Visual
Коммерческое название : MPEG-4 Visual
Профиль формата : Advanced Simple@L5
Настройки формата : BVOP1 / Custom Matrix
Параметр BVOP формата : 1
Параметр BVOP формата : 1
Параметр QPel формата : No
Параметр QPel формата : Нет
Параметр GMC формата : 0
Параметр GMC формата : Без точки перехода
Параметр матрицы формата : Custom
Параметр матрицы формата : Выборочная
Format_Settings_Matrix_Data : 0809090A0B0A0B0C0C0B0C0D0E0D0C0E0F10100F0E101011121110101212131414131212141516171615141618191918161A1C1D1C1A1E22221E262E26343448 / 1010101111111111111112121312121313141413131514151615141517161718181716171818191A1918181B1C1D1D1C1B202428242028303028343C3440406A
Интернет-тип носителя : video/MP4V-ES
Идентификатор кодека : XVID
Идентификатор кодека/Подсказка : XviD
Идентификатор кодека/Ссылка : http://mediaarea.net/XVID
Кодек : XVID
Кодек : XviD
Кодек/Семейство : MPEG-4V
Кодек/Информация : XviD project
Кодек/Ссылка : http://www.xvid.org/Downloads.15.0.html
Кодек/CC : XVID
Профиль кодека : Advanced Simple@L5
Настройки кодека : BVOP / Custom Matrix
Параметр пакетного потока данных : No
Параметр BVOP кодека : Yes
Параметр QPel кодека : No
Параметр GMC кодека : 0
Параметр GMC кодека : Без точки перехода
Параметр матрицы кодека : Custom
Продолжительность : 7405982
Продолжительность : 2 ч. 3 м.
Продолжительность : 2 ч. 3 м. 25 с. 982 мс.
Продолжительность : 2 ч. 3 м.
Продолжительность : 02:03:25.982
Битрейт : 1450761
Битрейт : 1451 Кбит/сек
Ширина : 720
Ширина : 720 пикс.
Высота : 320
Высота : 320 пикс.
Соотношение пикселей : 1.000
Соотношение сторон : 2.250
Соотношение сторон : 2,25:1
Частота кадров : 23.976
Частота кадров : 23,976 кадр/сек
Счётчик кадров : 177566
Разрешение : 8
Разрешение : 8 бит
Колориметрия : 4:2:0
Цветовое пространство : YUV
Подвыборка цветности : 4:2:0
Битовая глубина : 8
Битовая глубина : 8 бит
Тип развёртки : Progressive
Тип развёртки : Прогрессивная
Переплетение : PPF
Переплетение : Прогрессивная
Метод сжатия : Lossy
Метод сжатия : С потерями
Бит/(Пиксели*Кадры) : 0.263
Задержка : 0
Задержка : 00:00:00.000
Размер потока : 1343040376
Размер потока : 1,25 Гбайт (91%)
Размер потока : 1 Гбайт
Размер потока : 1,3 Гбайт
Размер потока : 1,25 Гбайт
Размер потока : 1,251 Гбайт
Размер потока : 1,25 Гбайт (91%)
Пропорции потока : 0.91486
Библиотека кодирования : XviD0050
Библиотека кодирования : XviD 1.2.1 (UTC 2008-12-04)
Библиотека кодирования/Имя : XviD
Библиотека кодирования/Version : 1.2.1
Библиотека кодирования/Дата : UTC 2008-12-04

Аудио
Кол-во : 157
Кол-во потоков такого типа : 1
Тип потока : Audio
Тип потока : Аудио
Идентификатор типа потока : 0
Inform : Russian, 128 Кбит/сек, 48,0 КГц, 2 канала(ов), MPEG Audio (MP3) (Version 1) (Layer 3) (Joint stereo / MS Stereo)
Идентификатор : 1
Идентификатор : 1
Формат : MPEG Audio
Коммерческое название : MPEG Audio
Версия формата : Version 1
Профиль формата : Layer 3
Настройки формата : Joint stereo / MS Stereo
Режим : Joint stereo
Расширение режима : MS Stereo
Интернет-тип носителя : audio/mpeg
Идентификатор кодека : 55
Идентификатор кодека/Подсказка : MP3
Идентификатор кодека/Ссылка : http://www.iis.fraunhofer.de/amm/index.html
Кодек : MPA1L3
Кодек : MPEG-1 Audio layer 3
Кодек/Семейство : MPEG-1
Кодек/Информация : MPEG-1 or 2 layer 3
Кодек/Ссылка : http://www.iis.fraunhofer.de/amm/index.html
Кодек/CC : 55
Профиль кодека : Joint stereo
Продолжительность : 7405992
Продолжительность : 2 ч. 3 м.
Продолжительность : 2 ч. 3 м. 25 с. 992 мс.
Продолжительность : 2 ч. 3 м.
Продолжительность : 02:03:25.992
Вид битрейта : CBR
Вид битрейта : Постоянный
Битрейт : 128000
Битрейт : 128 Кбит/сек
Канал(ы) : 2
Канал(ы) : 2 канала(ов)
Частота : 48000
Частота : 48,0 КГц
Количество образцов : 355489920
Счётчик кадров : 308585
Метод сжатия : Lossy
Метод сжатия : С потерями
Задержка : 0
Задержка : 00:00:00.000
Задержка в оригинале : Container
Задержка в оригинале : Контейнер
Задержка видео : 0
Задержка видео : 0
Размер потока : 118495872
Размер потока : 113 Мбайт (8%)
Размер потока : 113 Мбайт
Размер потока : 113 Мбайт
Размер потока : 113 Мбайт
Размер потока : 113,0 Мбайт
Размер потока : 113 Мбайт (8%)
Пропорции потока : 0.08072
Выравнивание : Aligned
Выравнивание : Соединение по промежуткам
Продолжительность промежутка : 2.00
Продолжительность промежутка : 83
Продолжительность промежутка : 83 мс. (2,00 видеокадров)
Время предзагрузки промежутка : 504
Время предзагрузки промежутка : 504 ms
Библиотека кодирования : LAME3.98r
Библиотека кодирования : LAME3.98r
Настройки программы : -m j -V 4 -q 2 -lowpass 17 -b 128
Язык : ru
Язык : Russian
Язык : Russian
Язык : ru
Язык : rus
Язык : ru
Семпл



Скачать Наше.счастливое.время.Страстной.Четверг.Maundy.Thursday.Our.Happy.Time.Urideul-ui.haengbok-han.shigan.(Сон.Хэ.Сон.Song.Hae-seong).[2006.Драма.DVDRip].torrent без регистрации
Золото ЗОЛОТАЯ РАЗДАЧА! СКАЧАННОЕ НЕ ЗАСЧИТЫВАЕТСЯ! Золото
Дата: Зарегистрирован   [ Тип: внутренний ] Как тут cкачать?
MAGNET ссылка
MAGNET ссылка


Скачать .torrent

219 KB

Статус: проверено DHT
Скачан: торрент - 137 раз, раздача полностью - 8 раз
Размер: 1,37 GB
Оценка:  - (Голосов: 0)
Поблагодарили: 1
Поделиться ссылкой на эту раздачу с друзьями:
В контактеFacebookОдноклассникиTwitterLivejournalМой МирLiveinternet
 

 
Показать сообщения:    


Вы не можете начинать темы
Вы не можете отвечать на сообщения
Вы не можете редактировать свои сообщения
Вы не можете удалять свои сообщения
Вы не можете голосовать в опросах
Вы не можете прикреплять файлы к сообщениям
Вы можете скачивать файлы