Loading...
Error

Скачать Опустевший город / Reign Over Me (Майк Байндер) [2007, драма, HDRip] торрент без регистрации

 
Статистика раздачи
Размер:  1,45 GB   |    Скачан:  157 раз
Сидов:  1  [  0 KB/s  ]  
 
Автор Сообщение

МихаНЕзатор

[] 

Информация о фильме
Название: Опустевший город
Оригинальное название: Reign Over Me
Год выхода: 2007
Жанр: драма
Режиссер: Майк Байндер / Mike Binder
В ролях: Адам Сэндлер, Дон Чидл, Джада Пинкетт Смит, Лив Тайлер, Саффрон Берроуз, Дональд Сазерленд, Роберт Клейн, Мелинда Диллон, Майк Байндер, Джонатан Бэнкс

О фильме:
Чарли Файнман и Алан Джонсон когда-то вместе учились в колледже и делили одну комнату в общежитии. Спустя годы они встречаются вновь и возобновляют дружеские отношения. Судьба по-разному обошлась с ними.

Чарли, потерявший во время терактов 11 сентября жену и детей, поставил на своей жизни крест. Алан же стал хорошим дантистом и примерным семьянином. Случайная встреча становится для них переломным моментом в жизни, поскольку и тот, и другой как никогда испытывают потребность в преданном друге



Страна: США
Продолжительность: 02:04:34
Перевод: Профессиональный (многоголосый, закадровый)

Файл
Кодек: XviD / AC-3
Качество: HDRip
Видео: XviD, 720x304 (2.35:1), 23.976 fps, 1 212 Kbps (0.231 bit/pixel)
Звук: AC-3, 48.0 KHz, 6 ch, 448 Kbps, CBR
General
Complete name : E:Reign.Over.Me_HDRip_1400_[Rutor.org].avi
Format : AVI
Format/Info : Audio Video Interleave
File size : 1.45 GiB
Duration : 2h 4mn
Overall bit rate : 1 669 Kbps
Writing application : VirtualDubMod 1.5.10.2 (build 2540/release)
Writing library : VirtualDubMod build 2540/release

Video
ID : 0
Format : MPEG-4 Visual
Format profile : Advanced Simple@L5
Format settings, BVOP : 1
Format settings, QPel : No
Format settings, GMC : No warppoints
Format settings, Matrix : Custom
Codec ID : XVID
Codec ID/Hint : XviD
Duration : 2h 4mn
Bit rate : 1 212 Kbps
Width : 720 pixels
Height : 304 pixels
Display aspect ratio : 2.35:1
Frame rate : 23.976 fps
Color space : YUV
Chroma subsampling : 4:2:0
Bit depth : 8 bits
Scan type : Progressive
Compression mode : Lossy
Bits/(Pixel*Frame) : 0.231
Stream size : 1.05 GiB (73%)
Writing library : XviD 1.2.1 (UTC 2008-12-04)

Audio
ID : 1
Format : AC-3
Format/Info : Audio Coding 3
Mode extension : CM (complete main)
Codec ID : 2000
Duration : 2h 4mn
Bit rate mode : Constant
Bit rate : 448 Kbps
Channel(s) : 6 channels
Channel positions : Front: L C R, Side: L R, LFE
Sampling rate : 48.0 KHz
Bit depth : 16 bits
Compression mode : Lossy
Stream size : 399 MiB (27%)
Alignment : Split accross interleaves
Interleave, duration : 42 ms (1.00 video frame)
Interleave, preload duration : 500 ms



Скачать Опустевший.город.Reign.Over.Me.(Майк.Байндер).[2007.драма.HDRip].torrent без регистрации
Золото ЗОЛОТАЯ РАЗДАЧА! СКАЧАННОЕ НЕ ЗАСЧИТЫВАЕТСЯ! Золото
Дата: Зарегистрирован   [ Тип: внутренний ] Как тут cкачать?
MAGNET ссылка
MAGNET ссылка


Скачать .torrent

15 KB

Статус: проверено DHT
Скачан: торрент - 157 раз, раздача полностью - 62 раз
Размер: 1,45 GB
Оценка:  5 (Голосов: 1)
Поблагодарили: 2
Поделиться ссылкой на эту раздачу с друзьями:
В контактеFacebookОдноклассникиTwitterLivejournalМой МирLiveinternet
 

 
Показать сообщения:    


Вы не можете начинать темы
Вы не можете отвечать на сообщения
Вы не можете редактировать свои сообщения
Вы не можете удалять свои сообщения
Вы не можете голосовать в опросах
Вы не можете прикреплять файлы к сообщениям
Вы можете скачивать файлы