Loading...
Error

Скачать Приключения королевского стрелка Шарпа / Sharpe's (01-16 из 16) (Tом Клегг) [1993-2008, военный, история, приключения, сериал, DVDRip] торрент без регистрации

 
Статистика раздачи
Размер:  22,06 GB   |    Скачан:  335 раз
Сидов:  1  [  0 KB/s  ]  
 
Автор Сообщение

МихаНЕзатор

[] 

Название: Приключения королевского стрелка Шарпа

Год выпуска: 1993-2008

Жанр: Военный, История, Приключения, Сериал

Производство: Великобритания

Режиссер: Tом Клегг /Tom Clegg/

В ролях: Шон Бин /Sean Bean/, Элизабет Херли /Elizabeth Hurley/,Дараг О'Мэлли /Daragh Malley/,Тоби Стивенс /Toby Stephens/,Падма Лакшми /Padma Lakshmi/,Орельен Рекуен /Aurelien Recoing/,Люси Браун /Lucy Brown/,Майкл Кокрейн /Michael Cochrane/,Николас Блейн /Nicholas Blane/,Майкл Элвин /Michael Elwyn/,Дайана Перес /Diana Perez/ и другие

О фильме: Сериал о приключениях королевского стрелка Ричарда Шарпа снят по знаменитой эпопее Бернарда Корнвелла. Его героя называют Джеймсом Бондом 19-го века. Ричард Шарп родился в Лондоне в июле 1777 года от неизвестного отца и матери-проститутки. В 9 лет он сбежал оттуда и с тех пор скитался по лондонским трущобам. В шестнадцать лет он убил человека. Ему пришлось бежать, спасаясь от петли палача. Так он попал прямиком в британскую армию. Его ждали невероятные приключения в Индии, Испании, Франции. Сообразительный, бесстрашный и удачливый, он был солдатом, шпионом и первопроходцем. Случалось, его храбрость решала исход великих сражений. В него влюблялись прекрасные женщины, но он не смог сохранить ни одну из них...

Продолжительность: 16x~110 минут

Язык: Русский Профессиональный (многоголосый)1-14,(одноголосый) - 15,16

Формат/Кодек: AVI.XviD

Источник: DVDRip

Видео: 1-14, 720x440, 25 fps, XviD , 1546 kbps, 15,640х352, 16,704х400,

Звук: ru 1,en 2 48 kHz, AC3 Dolby Digital, 2 ch, ~192.00 kbps

Размер: 16x~1.37 гб
Общее
Полное имя : C:сериалыsharpesharpe.s01e01.avi
Формат : AVI
Формат/Информация : Audio Video Interleave
Размер файла : 1,37 Гбайт
Продолжительность : 1 ч. 40 м.
Общий поток : 1945 Кбит/сек
Программа кодирования : VirtualDubMod 1.5.10.2 (build 2542/release)
Библиотека кодирования : VirtualDubMod build 2542/release

Видео
Идентификатор : 0
Формат : MPEG-4 Visual
Профиль формата : Advanced Simple@L5
Параметр BVOP формата : 2
Параметр QPel формата : Нет
Параметр GMC формата : Без точки перехода
Параметр матрицы формата : Default (H.263)
Идентификатор кодека : XVID
Идентификатор кодека/Подсказка : XviD
Продолжительность : 1 ч. 40 м.
Битрейт : 1546 Кбит/сек
Ширина : 720 пикс.
Высота : 440 пикс.
Соотношение сторон : 1,636
Частота кадров : 25,000 кадр/сек
Цветовое пространство : YUV
Подвыборка цветности : 4:2:0
Битовая глубина : 8 бит
Тип развёртки : Прогрессивная
Метод сжатия : С потерями
Бит/(Пиксели*Кадры) : 0.195
Размер потока : 1,09 Гбайт (80%)
Библиотека кодирования : XviD 1.1.2 (UTC 2006-11-01)

Аудио #1
Идентификатор : 1
Формат : AC-3
Формат/Информация : Audio Coding 3
Расширение режима : CM (complete main)
Идентификатор кодека : 2000
Продолжительность : 1 ч. 40 м.
Вид битрейта : Постоянный
Битрейт : 192 Кбит/сек
Каналы : 2 канала
Расположение каналов : Front: L R
Частота : 48,0 КГц
Битовая глубина : 16 бит
Метод сжатия : С потерями
Размер потока : 138 Мбайт (10%)
Выравнивание : Разделение по промежуткам
Продолжительность промежутка : 40 мс. (1,00 видеокадр)
Время предзагрузки промежутка : 500 ms

Аудио #2
Идентификатор : 2
Формат : AC-3
Формат/Информация : Audio Coding 3
Расширение режима : CM (complete main)
Идентификатор кодека : 2000
Продолжительность : 1 ч. 40 м.
Вид битрейта : Постоянный
Битрейт : 192 Кбит/сек
Каналы : 2 канала
Расположение каналов : Front: L R
Частота : 48,0 КГц
Битовая глубина : 16 бит
Метод сжатия : С потерями
Размер потока : 138 Мбайт (10%)
Выравнивание : Разделение по промежуткам
Продолжительность промежутка : 40 мс. (1,00 видеокадр)
Время предзагрузки промежутка : 500 ms

Стрелки Шарпа / Sharpe`s Rifles s01e01
Орел Шарпа / Sharpe's Eagle s01e02
Рота Шарпа / Sharpe`s Company s02e01
Враг Шарпа / Sharpe`s Enemy s02e02
Честь Шарпа / Sharpe`s Honour s02e03
Золото Шарпа / Sharpe`s Gold s03e01
Битва Шарпа / Sharpe`s Battle s03e02
Сабля Шарпа / Sharpe`s Sword s03e03
Полк Шарпа / Sharpe`s Regiment s04e01
Осада Шарпа / Sharpe`s Siege s04e02
Задание Шарпа / Sharpe`s Mission s04e03
Месть Шарпа / Sharpe`s Revenge s05e01
Правосудие Шарпа / Sharpe`s Justice s05e02
Ватерлоо Шарпа / Sharpe`s Waterloo s05e03
Вызов Шарпа / Sharpe`s Callenge 2006
Риск Шарпа / Sharpe`s Peril 2008



Скачать Приключения.королевского.стрелка.Шарпа.Sharpe's.(01-16.из.16).(Tом.Клегг).[1993-2008.военный.история.приключения.сериал.DVDRip].torrent без регистрации
Золото ЗОЛОТАЯ РАЗДАЧА! СКАЧАННОЕ НЕ ЗАСЧИТЫВАЕТСЯ! Золото
Дата: Зарегистрирован   [ Тип: внутренний ] Как тут cкачать?
MAGNET ссылка
MAGNET ссылка


Скачать .torrent

111 KB

Статус: проверено DHT
Скачан: торрент - 335 раз, раздача полностью - 303 раз
Размер: 22,06 GB
Оценка:  5 (Голосов: 3)
Поблагодарили: 5
Поделиться ссылкой на эту раздачу с друзьями:
В контактеFacebookОдноклассникиTwitterLivejournalМой МирLiveinternet
 

 

leon030982

[] 

а поменьше размера нет ab ?так чтоб серия по 700мб была ab ?
 
Показать сообщения:    


Вы не можете начинать темы
Вы не можете отвечать на сообщения
Вы не можете редактировать свои сообщения
Вы не можете удалять свои сообщения
Вы не можете голосовать в опросах
Вы не можете прикреплять файлы к сообщениям
Вы можете скачивать файлы