Loading...
Error

Скачать На исходе дня / The Remains of the Day (Джеймс Айвори / James Ivory) [1993, драма, мелодрама, HDTVRip] торрент без регистрации

 
Статистика раздачи
Размер:  744 MB   |    Скачан:  139 раз
Сидов:  1  [  0 KB/s  ]  
 
Автор Сообщение

Marsianka

[] 

Информация о фильме
Название: На исходе дня
Оригинальное название: The Remains of the Day
Год выхода: 1993
Жанр: драма, мелодрама
Режиссер: Джеймс Айвори / James Ivory
В ролях: Энтони Хопкинс /Anthony Hopkins/, Эмма Томпсон /Emma Thompson/, Джеймс Фокс /James Fox/, Кристофер Рив /Christopher Reeve/, Питер Воэн /Peter Vaughan/, Хью Грант /Hugh Grant/, Микаэль Лонсдаль /Michael Lonsdale/, Тим Пиготт-Смит /Tim Pigott-Smith/, Лена Хиди /Lena Headey/, Паула Джейкобс /Paula Jacobs/, Патрик Годфри /Patrick Godfrey/, Бен Чаплин /Ben Chaplin/, Питер Селлиер /Peter Cellier/, Питер Холлидэй /Peter Halliday/, Steve Dibben, Теренс Бэйлер /Terence Bayler/, Джефри Уикэм /Jeffrey Wickham/, Джон Хэйкрафт /John Haycraft/, Бриджитт Кан /Brigitte Kahn/

О фильме:
Стивенс образцовый английский дворецкий, который всю жизнь провел в старинном поместье. Он отдал свое сердце беззаветному служению, и нет ничего, что может заставить его изменить долгу. Неожиданно привычное течение дней нарушается, когда в поместье появляется новая экономка, мисс Кентон.

Стивенс пытается скрыть глубокие чувства к этой женщине, но ни вековая традиция, ни священные обязанности не могут остановить вспыхнувшую любовь. И лишь теперь, на закате дней, преданный дворецкий открыл для себя тот единственный идеал, который достоин истинного служения


Страна: США, Великобритания
Студия: Merchant Ivory Productions, Columbia Pictures
Продолжительность: 02:07:17
Перевод: Профессиональный (многоголосый закадровый)

Файл
Кодек: XviD / MP3
Качество: HDTVRip
Видео: XviD, 640x272 (2.35:1), 25.000 fps, 711 Kbps (0.163 bit/pixel)
Звук: MP3, 32.0 KHz, 2 ch, 96.0 Kbps, CBR
General
Complete name : E:The.Remains.of.the.Day_745_[Rutor.org].avi
Format : AVI
Format/Info : Audio Video Interleave
File size : 744 MiB
Duration : 2h 7mn
Overall bit rate : 817 Kbps
Writing application : VirtualDubMod 1.5.10.2 (build 2540/release)
Writing library : VirtualDubMod build 2540/release

Video
ID : 0
Format : MPEG-4 Visual
Format profile : Advanced Simple@L5
Format settings, BVOP : 1
Format settings, QPel : No
Format settings, GMC : No warppoints
Format settings, Matrix : Custom
Codec ID : XVID
Codec ID/Hint : XviD
Duration : 2h 7mn
Bit rate : 711 Kbps
Width : 640 pixels
Height : 272 pixels
Display aspect ratio : 2.35:1
Frame rate : 25.000 fps
Color space : YUV
Chroma subsampling : 4:2:0
Bit depth : 8 bits
Scan type : Progressive
Compression mode : Lossy
Bits/(Pixel*Frame) : 0.163
Stream size : 648 MiB (87%)
Writing library : XviD 1.2.1 (UTC 2008-12-04)

Audio
ID : 1
Format : MPEG Audio
Format version : Version 1
Format profile : Layer 3
Mode : Joint stereo
Codec ID : 55
Codec ID/Hint : MP3
Duration : 2h 7mn
Bit rate mode : Constant
Bit rate : 96.0 Kbps
Channel(s) : 2 channels
Sampling rate : 32.0 KHz
Compression mode : Lossy
Stream size : 87.4 MiB (12%)
Alignment : Aligned on interleaves
Interleave, duration : 40 ms (1.00 video frame)
Interleave, preload duration : 504 ms



Скачать На.исходе.дня.The.Remains.of.the.Day.(Джеймс.Айвори.James.Ivory).[1993.драма.мелодрама.HDTVRip].torrent без регистрации
Золото ЗОЛОТАЯ РАЗДАЧА! СКАЧАННОЕ НЕ ЗАСЧИТЫВАЕТСЯ! Золото
Дата: Зарегистрирован   [ Тип: внутренний ] Как тут cкачать?
MAGNET ссылка
MAGNET ссылка


Скачать .torrent

15 KB

Статус: проверено DHT
Скачан: торрент - 139 раз, раздача полностью - 2 раз
Размер: 744 MB
Оценка:  5 (Голосов: 2)
Поблагодарили: 1
Поделиться ссылкой на эту раздачу с друзьями:
В контактеFacebookОдноклассникиTwitterLivejournalМой МирLiveinternet
 

 
Показать сообщения:    


Вы не можете начинать темы
Вы не можете отвечать на сообщения
Вы не можете редактировать свои сообщения
Вы не можете удалять свои сообщения
Вы не можете голосовать в опросах
Вы не можете прикреплять файлы к сообщениям
Вы можете скачивать файлы