Loading...
Error

Скачать [cmiVFX] Houdini Hip Tricks Volume 3 [2011, ENG] торрент без регистрации

 
Статистика раздачи
Размер:  750 MB   |    Скачан:  94 раза
Сидов:  1  [  0 KB/s  ]  
 
Автор Сообщение

Moln!a

[] 

Houdini Hip Tricks Volume 3
Год выпуска: 2011
Производитель: cmiVFX
Сайт производителя: http://www.cmivfx.com/tutorials/view/300/Houdini+Hip+Tricks+Volume+3
Автор: Alvaro Castaneda
Продолжительность: 04:00:27
Тип раздаваемого материала: Видеоурок
Язык: Английский
Описание: cmiVFX launches its latest training for the SideFX Houdini premiere digital visual effects animation software package. If two were not enough, we come back with the highly anticipated third, killer sibling, for the series! Following the amazing success of the first two titles from cmiVFX Hip Tricks, we bring another blockbuster release for you to master! Everything you want to know, delivered fast and furious, (as usual) through our ground breaking, ever evolving web based delivery player system. In this video, you’ll learn how to make production ready user friendly tools that will captivate your audience, time and time again. We are turning the Houdini world upside down, bringing a fresh look into its amazing tool set. As a testament to the power and flexibility of Houdini, we’ll try to keep it simple and comprehensible by encapsulating some of the higher end film techniques Houdini is famous for. If your dream is to do the impossible, Houdini is the software for you to achieve your objectives and cmiVFX is the trainer for you to achieve your inner greatness.
Alien Crop Field Designs
Play the role of the young Alien Graffiti artist and create outstanding designs on crop fields! We`ll emulate crop field designs right within Houdini, in a simple, easy to understand lesson that any level of artist can follow. The technique we`ll learn allows you to quickly apply a lot of different effects, such as foot prints to your custom shots. You`ll be able to start using a basic text file as guide or a complex image file directly in your crop field system. This project open up doors, (or should we say celestial gateways?), to other effects related to our source material.
Making Hip Art
Hip Art is well known for its beautiful repetitions. The technique uses tons of repetition and the subtle changes to express the individual artists minds in a way that is perfect for Houdini. Taking all of this into consideration, it becomes a perfect subject for our studies. Using both Houdini geometry displacements and render time displacements, we will make some images that will open your mind to a brand new kind of experience and help add a phenomenal amount of details to your projects.
Simple Crowd System
This simple crowd system will get you started on creating complex shots for your animations in a heart beat. It has a solid, easy to understand base for you to add crowds to any scene you desire. We’ll learn how to create different levels of proxy geometry directly from the high resolution source without loosing the main shape of the character. Alongside that, you`ll learn how to add randomness to get away with having repeating actions on your characters and avoid having them looking all the same, which is a common problem with first timers when building crowd systems. We’ll also prepare our system to adopt any custom character you might want to use. You can also use instances for particles and/or delayed loading. Get your crowd shots working flawlessly with some expert tips from Varomix!
Alvaro Castaneda
Alvaro Castaneda, best known as "Varomix" is a 33 years old CG Generalist TD. He lost a little of his self back in 1993 at a Jurassic Park screening, and that totally changed his life. Toy Story finished the job in 1995 - there was no turning back!. He started his way in 3D back in 1998, first using 3ds Max, then Cinema4D and finally in 1999, he met Maya 2.0. Since then he has done CGI for print, web, TV, Film, DVD, I guess anything that has pixels in it!. He started using Houdini in 2002 shortly after Side Effects launched the Houdini Apprentice Program. He had also done on-set VFX Supervision and DOP Assisting.
Project Contents
All cmiVFX videos come with all the training materials you can need right from our website. No matter what time of day, your location, or how your feeling, cmiVFX will be there waiting for you!
Tools Covered: Add, Color, File, Convert, grid, merge, delete, facet, polywire, resample, scatter, sweep, switch, skin, popNetwork | Tools Covered in Alien Crop: line, group, attribute transfer, copy, group, point, scatter sort, trace, Font, twist, xform, divide, delete | Tools Covered in Crowd: color, fuse, merge polyreduce, switch, scatter, pointjitter, copy, divide, ray.
Файлы примеров: присутствуют
Формат видео: MP4
Видео: MPEG4 Video (H264), 1024x576, 16:9, 11.988 fps, 315 Kbps
Аудио: AAC, 48000Hz, 108 Kbps, stereo
General
Format : MPEG-4
Format profile : Base Media
Codec ID : isom
File size : 735 MiB
Duration : 4h 0mn
Overall bit rate : 428 Kbps
Writing application : Lavf52.84.0
Video
ID : 1
Format : AVC
Format/Info : Advanced Video Codec
Format profile : High@L3.1
Format settings, CABAC : Yes
Format settings, ReFrames : 5 frames
Codec ID : avc1
Codec ID/Info : Advanced Video Coding
Duration : 4h 0mn
Bit rate mode : Variable
Bit rate : 315 Kbps
Width : 1 024 pixels
Height : 576 pixels
Display aspect ratio : 16:9
Frame rate mode : Variable
Frame rate : 11.988 fps
Minimum frame rate : 6.000 fps
Maximum frame rate : 12.000 fps
Color space : YUV
Chroma subsampling : 4:2:0
Bit depth : 8 bits
Scan type : Progressive
Bits/(Pixel*Frame) : 0.045
Stream size : 542 MiB (74%)
Writing library : x264 core 107 r1765 601c0e3
Language : English
Audio
ID : 2
Format : AAC
Format/Info : Advanced Audio Codec
Format profile : LC
Codec ID : 40
Duration : 4h 0mn
Bit rate mode : Variable
Bit rate : 108 Kbps
Channel(s) : 2 channels
Channel positions : Front: L R
Sampling rate : 48.0 KHz
Compression mode : Lossy
Stream size : 185 MiB (25%)
Language : English



Скачать Houdini.Hip.Tricks.Volume.3.[2011.ENG].torrent без регистрации
Золото ЗОЛОТАЯ РАЗДАЧА! СКАЧАННОЕ НЕ ЗАСЧИТЫВАЕТСЯ! Золото
Дата: Зарегистрирован   [ Тип: внутренний ] Как тут cкачать?
MAGNET ссылка
MAGNET ссылка


Скачать .torrent

16 KB

Статус: проверено DHT
Скачан: торрент - 94 раз, раздача полностью - 0 раз
Размер: 750 MB
Оценка:  - (Голосов: 0)
Поблагодарили: 0
Поделиться ссылкой на эту раздачу с друзьями:
В контактеFacebookОдноклассникиTwitterLivejournalМой МирLiveinternet
 

 
Показать сообщения:    


Вы не можете начинать темы
Вы не можете отвечать на сообщения
Вы не можете редактировать свои сообщения
Вы не можете удалять свои сообщения
Вы не можете голосовать в опросах
Вы не можете прикреплять файлы к сообщениям
Вы можете скачивать файлы