Loading...
Error

Скачать [cmiVFX] Blender V-Ray Introduction [2010, ENG] торрент без регистрации

 
Статистика раздачи
Размер:  332 MB   |    Скачан:  118 раз
Сидов:  1  [  0 KB/s  ]  
 
Автор Сообщение

Moln!a

[] 

cmiVFX - Blender V-Ray Introduction
Год выпуска: 01/11/2010
Производитель: cmiVFX
Сайт производителя: http://cmivfx.com/
Автор: Sebastian Koenig
Продолжительность: 02.16.22
Тип раздаваемого материала: Видеоурок
Язык: Английский
Версия блендера: 2.49b
Описание: The days of excuses are over! If the lack of a production-tested Global-Illumination-Renderer kept you from using Blender, the wait is over! Blender-Users have been utilizing other Apps like Max or C4D that have the V-Ray-Renderer-Plug-in. Where is the good news for you? Now that the V-Ray for Maya Standalone version is out, you can use an elegant and surprisingly good working exporter-script to render your Blender scenes with the V-Ray for Maya Standalone. Yes, you heard right, rendering with V-Ray from directly within Blender has become possible! Use your favorite tools and your beloved Blender-workflows, and produce stunning and superfast renderings with one of the most used and favored renderers out there! And not only that, when you finished rendering use the Blender дТs built-in compositor to do color-correction, effects and compositing. The possibilities are endless! Need a fast; reliable, easy to setup, high-quality renderer, then V-Ray is for you.
Файлы примеров: присутствуют
General
Complete name : E:\graphics\Blender\cmiVFX - Blender V-Ray Introduction\CMIVFX_Blender V-Ray_Introduction.mp4
Format : MPEG-4
Format profile : Base Media
Codec ID : isom
File size : 329 MiB
Duration : 2h 16mn
Overall bit rate : 337 Kbps
Writing application : Lavf52.84.0
Video
ID : 1
Format : AVC
Format/Info : Advanced Video Codec
Format profile : High@L3.1
Format settings, CABAC : Yes
Format settings, ReFrames : 5 frames
Codec ID : avc1
Codec ID/Info : Advanced Video Coding
Duration : 2h 16mn
Bit rate : 228 Kbps
Width : 1 024 pixels
Height : 576 pixels
Display aspect ratio : 16:9
Frame rate mode : Constant
Frame rate : 12.000 fps
Color space : YUV
Chroma subsampling : 4:2:0
Bit depth : 8 bits
Scan type : Progressive
Bits/(Pixel*Frame) : 0.032
Stream size : 222 MiB (68%)
Writing library : x264 core 107 r1765 601c0e3
Encoding settings : cabac=1 / ref=5 / deblock=1:0:0 / analyse=0x3:0x113 / me=umh / subme=8 / psy=1 / psy_rd=1.00:0.00 / mixed_ref=1 / me_range=16 / chroma_me=1 / trellis=1 / 8x8dct=1 / cqm=0 / deadzone=21,11 / fast_pskip=1 / chroma_qp_offset=-2 / threads=1 / sliced_threads=0 / nr=0 / decimate=1 / interlaced=0 / constrained_intra=0 / bframes=3 / b_pyramid=2 / b_adapt=2 / b_bias=0 / direct=3 / weightb=1 / open_gop=0 / weightp=2 / keyint=250 / keyint_min=25 / scenecut=40 / intra_refresh=0 / rc_lookahead=50 / rc=crf / mbtree=1 / crf=22.0 / qcomp=0.60 / qpmin=10 / qpmax=51 / qpstep=4 / ip_ratio=1.41 / aq=1:1.00
Language : English
Audio
ID : 2
Format : AAC
Format/Info : Advanced Audio Codec
Format profile : LC
Codec ID : 40
Duration : 2h 16mn
Bit rate mode : Variable
Bit rate : 104 Kbps
Channel(s) : 2 channels
Channel positions : Front: L R
Sampling rate : 48.0 KHz
Compression mode : Lossy
Stream size : 102 MiB (31%)
Language : English
Installing V-Ray
This tutorial will show you how to install the V-Ray for Maya Standalone version, how to setup the license-server and how to use the exporter-script. After a brief overview over the different sections of the script and its interface, learn the basic setups for Irradiance-Map and Light cache. Although there are a couple of other rendering methods in V-Ray, the combination of Irradiance-Map and Light cache is the most common one and gives blazingly fast and good results. Both methods provide lots of possibilities to tweak render-settings and to find the best compromise between speed and quality. Light cache is perfect to get an idea of the final look of your scene in just seconds. This tutorial uses very simple example scenes, so you can quickly and easily reproduce the test-renderings of this video.
Settings
The V-Ray/Blender exporter-script allows you to use Blender interface to control the basic light-settings, material-setups, mirror / transparency settings and world-backgrounds. You will barely notice that you are working with a script. If there is the need to add special settings to objects, lamps or world-settings that cannot be accessed in Blender, there is an extra section in the script where you can do just that. As an example, you will learn how to use HDRI Maps to add reflections and light your scene as well as how to eliminate noise in the renderings by adjusting the lamp-settings.
Materials
After the basic introduction the tutorial shows a basic workflow for how an architectural rendering could look like. Assign materials, unwrap the mesh and apply textures in Blender, similar to the Blender Internal renderer. Use Blender Äôs sun-lamp for fast and easily changes to the mood of your image completely by simulating the times of day with the V-Ray-Sun and V-Ray-Sky. During the tutorial learn some important tips and tricks for some special extras, like dynamic linking of V-Ray-renderings to Blender Äôs built-in compositor or region-rendering for super-fast previews of your scene.
Will it blend?
If course only test-renderings and simple demo scenes are a bit boring, so we decided to add the blend file from the title image as a special little bonus to the tutorial. Because what could be better as an example-scene for a Blender-tutorial than a Blender? The last chapter gives an overview on the scene-setup, the materials and the render settings. Check out the settings for glass material, smooth plastic with blurry reflections and translucent materials. This introduction for Blender-to-V-Ray-connection keeps you and your CPUs busy until we come up with the next, advanced tutorial for V-Ray and Blender.
About the Author
Sebastian König is a German 3D-artist who is working as a freelancer and CG-instructor for several years now. During his studies for Education of Art he discovered the joy of modeling and creating 3D-Animations with Blender and hasn't stopped since. Being a passionate Blender-User he has been teaching Blender at the University of Art and Design Halle/Germany. He has been working for various studios and companies as a 3D-Artist and freelancer. During the dozens of projects and jobs he completed with Blender he got a profound knowledge of almost every aspect of this great Open-Source 3D-application.



Скачать Blender.V-Ray.Introduction.[2010.ENG].torrent без регистрации
Золото ЗОЛОТАЯ РАЗДАЧА! СКАЧАННОЕ НЕ ЗАСЧИТЫВАЕТСЯ! Золото
Дата: Зарегистрирован   [ Тип: внутренний ] Как тут cкачать?
MAGNET ссылка
MAGNET ссылка


Скачать .torrent

14 KB

Статус: проверено DHT
Скачан: торрент - 118 раз, раздача полностью - 22 раз
Размер: 332 MB
Оценка:  - (Голосов: 0)
Поблагодарили: 0
Поделиться ссылкой на эту раздачу с друзьями:
В контактеFacebookОдноклассникиTwitterLivejournalМой МирLiveinternet
 

 
Показать сообщения:    


Вы не можете начинать темы
Вы не можете отвечать на сообщения
Вы не можете редактировать свои сообщения
Вы не можете удалять свои сообщения
Вы не можете голосовать в опросах
Вы не можете прикреплять файлы к сообщениям
Вы можете скачивать файлы