Loading...
Error

Скачать Семь кабинок (Дмитрий Месхиев) [2007, детектив, комедия, DVDRip-AVC] торрент без регистрации

 
Статистика раздачи
Размер:  1,35 GB   |    Скачан:  193 раза
Сидов:  1  [  0 KB/s  ]  
 
Автор Сообщение

МихаНЕзатор

[] 


Название: Семь кабинок
Год выхода: 2007
Жанр: Детектив, комедия
Режиссер: Дмитрий Месхиев
В ролях: Федор Бондарчук, Кристина Кузьмина, Алексей Барабаш, Михаил Евланов, Сергей Козик, Наталья Суркова, Артур Ваха, Наталья Бурмистрова, Александр Яценко, Сергей Перегудов, Павел Бадыров, Хельга Филиппова

О фильме: Что, казалось бы, может быть невиннее, чем женский туалет на ремонте? В его кабинках можно прятаться от суеты большого города, обсуждать любовников, пить, плакать, спать, курить и заниматься сексом... А также в нем можно прятать то, что никто не должен найти... Неизвестная красотка оставляет в туалете диск с информацией. Два гангстера приходят забрать свое и 7 кабинок в туалете модного ночного клуба становятся сценой для одного из самых неожиданных сюжетов современности.



Выпущено: Россия
Продолжительность: 01:31:18
Язык: Русский


Кодек: H264/High@L4.1
Качество видео: DVDRip-AVC
Формат: MPEG-4
Видео: 1024x432 2,35:1, 25 fps, ~1725 kbps avg, 0.16 bit/pixel
Аудио: AAC-LC, 48 kHz, 6 ch, 384 kbps avg

Формат : MPEG-4
Профиль формата : Base Media
Идентификатор кодека : isom
Размер файла : 1,35 Гбайт
Продолжительность : 1 ч. 31 м.
Общий поток : 2109 Кбит/сек
Программа кодирования : Lavf 53.6.0

Видео
Идентификатор : 1
Формат : AVC
Формат/Информация : Advanced Video Codec
Профиль формата : High@L4.1
Параметр CABAC формата : Да
Параметр ReFrames формата : 6 кадров
Идентификатор кодека : avc1
Идентификатор кодека/Информация : Advanced Video Coding
Продолжительность : 1 ч. 31 м.
Битрейт : 1725 Кбит/сек
Ширина : 1024 пикселя
Высота : 432 пикселя
Соотношение сторон : 2,35:1
Режим частоты кадров : Постоянный
Частота кадров : 25,000 кадров/сек
Цветовое пространство : YUV
Субдискретизация насыщенности : 4:2:0
Битовая глубина : 8 бит
Тип развёртки : Прогрессивная
Бит/(Пиксели*Кадры) : 0.156
Размер потока : 1,10 Гбайт (82%)
Библиотека кодирования : x264 core 116 r2019 9cc407d
Настройки программы : cabac=1 / ref=6 / deblock=1:0:0 / analyse=0x3:0x133 / me=umh / subme=7 / psy=1 / psy_rd=1.00:0.00 / mixed_ref=1 / me_range=16 / chroma_me=1 / trellis=2 / 8x8dct=1 / cqm=0 / deadzone=21,11 / fast_pskip=0 / chroma_qp_offset=-2 / threads=3 / sliced_threads=0 / nr=0 / decimate=1 / interlaced=0 / bluray_compat=0 / constrained_intra=0 / bframes=3 / b_pyramid=2 / b_adapt=2 / b_bias=0 / direct=3 / weightb=1 / open_gop=0 / weightp=2 / keyint=250 / keyint_min=25 / scenecut=40 / intra_refresh=0 / rc_lookahead=200 / rc=2pass / mbtree=1 / bitrate=1725 / ratetol=1.0 / qcomp=0.60 / qpmin=0 / qpmax=69 / qpstep=4 / cplxblur=20.0 / qblur=0.5 / ip_ratio=1.40 / aq=1:1.00

Аудио
Идентификатор : 2
Формат : AAC
Формат/Информация : Advanced Audio Codec
Профиль формата : LC
Идентификатор кодека : 40
Продолжительность : 1 ч. 31 м.
Вид битрейта : Постоянный
Битрейт : 384 Кбит/сек
Каналы : 6 каналов
Расположение каналов : Front: L C R, Side: L R, LFE
Частота : 48,0 КГц
Метод сжатия : С потерями
Размер потока : 249 Мбайт (18%)



Скачать Семь.кабинок.(Дмитрий.Месхиев).[2007.детектив.комедия.DVDRip-AVC].torrent без регистрации
Золото ЗОЛОТАЯ РАЗДАЧА! СКАЧАННОЕ НЕ ЗАСЧИТЫВАЕТСЯ! Золото
Дата: Зарегистрирован   [ Тип: внутренний ] Как тут cкачать?
MAGNET ссылка
MAGNET ссылка


Скачать .torrent

14 KB

Статус: проверено DHT
Скачан: торрент - 193 раз, раздача полностью - 84 раз
Размер: 1,35 GB
Оценка:  - (Голосов: 0)
Поблагодарили: 1
Поделиться ссылкой на эту раздачу с друзьями:
В контактеFacebookОдноклассникиTwitterLivejournalМой МирLiveinternet
 

 
Показать сообщения:    


Вы не можете начинать темы
Вы не можете отвечать на сообщения
Вы не можете редактировать свои сообщения
Вы не можете удалять свои сообщения
Вы не можете голосовать в опросах
Вы не можете прикреплять файлы к сообщениям
Вы можете скачивать файлы