Loading...
Error

Скачать [Digital Tutors] Voronoi Dynamic Fracturing in Houdini [2011, ENG] торрент без регистрации

 
Статистика раздачи
Размер:  510 MB   |    Скачан:  107 раз
Сидов:  1  [  0 KB/s  ]  
 
Автор Сообщение

Moln!a

[] 

Creative Development Voronoi Dynamic Fracturing in Houdini with Luke Olson
Год выпуска: 2011
Производитель: Digital Tutors
Сайт производителя: http://www.digitaltutors.com/11/training.php?pid=68
Автор: Luke Olson
Продолжительность: 1:37:55
Тип раздаваемого материала: Видеоурок
Язык: Английский
Описание:
In this series of lessons, we will learn how to create dynamic and high quality fracturingsimulations.
Dynamic fracturing of rigid bodies is a powerful and production ready tool in Houdini. The shelf tools are a great place to start but there's a lot more under the hood that can be leveraged to get high quality and highly tunable results in less time. This tutorial covers dynamic fracturing starting in the context of dynamic simulations, then using dynamic fracturing building blocks to visualize fracturing without the need to simulate anything, and other tip and tricks to attain complex effects and improve robustness of the workflow. The material is based on the assumption that the viewer has a working knowledge of other aspects of Houdini and might have some experience with other DOP simulations. Dynamic fracturing was introduced in Houdini 9.5 but this tutorial was created using Houdini 11.0 so there may be some differences with earlier versions of Houdini.
1. Overview of dynamic fracturing
2. Visualizing fractures without simulations
3. Syncing visualizations with live simulations
4. Directed fracturing with reference geometry
5. Fracturing objects with grain (like wood)
6. Constraining fractured objects
7. Tuning post fracture behavior
8. Considerations for fractured object shaders
Файлы примеров: присутствуют
Формат видео: flv
Видео: Flash Video 4,(FLV4), 1280x720, 16:9 ratio,1000 Kbps, 15.000 fps
Аудио: MPEG Audio Layer 3, 96kbps, 44100Hz, mono
General
Format : Flash Video
Overall bit rate : 926 Kbps
Encoded date : Tue Jun 14 11:56:38 2011
Writing application : Digital-Tutors - All rights reserved / Sorenson Squeeze
Video
Format : VP6
Bit rate : 1 000 Kbps
Width : 1 280 pixels
Height : 720 pixels
Display aspect ratio : 16:9
Frame rate mode : Constant
Frame rate : 15.000 fps
Bits/(Pixel*Frame) : 0.072
Stream size : 162 MiB
Audio
Format : MPEG Audio
Format version : Version 1
Format profile : Layer 3
Bit rate mode : Constant
Bit rate : 96.0 Kbps
Channel(s) : 1 channel
Sampling rate : 44.1 KHz
Bit depth : 16 bits
Stream size : 15.6 MiB (10%)
Доп. информация: Если воспроизводится без звука, то обновляйте кодеки.



Скачать Voronoi.Dynamic.Fracturing.in.Houdini.[2011.ENG].torrent без регистрации
Золото ЗОЛОТАЯ РАЗДАЧА! СКАЧАННОЕ НЕ ЗАСЧИТЫВАЕТСЯ! Золото
Дата: Зарегистрирован   [ Тип: внутренний ] Как тут cкачать?
MAGNET ссылка
MAGNET ссылка


Скачать .torrent

21 KB

Статус: проверено DHT
Скачан: торрент - 107 раз, раздача полностью - 8 раз
Размер: 510 MB
Оценка:  - (Голосов: 0)
Поблагодарили: 0
Поделиться ссылкой на эту раздачу с друзьями:
В контактеFacebookОдноклассникиTwitterLivejournalМой МирLiveinternet
 

 
Показать сообщения:    


Вы не можете начинать темы
Вы не можете отвечать на сообщения
Вы не можете редактировать свои сообщения
Вы не можете удалять свои сообщения
Вы не можете голосовать в опросах
Вы не можете прикреплять файлы к сообщениям
Вы можете скачивать файлы