Loading...
Error

Скачать [Video Tutorial] HQ plants video tutorial [ENG] торрент без регистрации

 
Статистика раздачи
Размер:  16 MB   |    Скачан:  99 раз
Сидов:  1  [  0 KB/s  ]  
 
Автор Сообщение

Moln!a

[] 

HQ plants vol_1 for Cinema4D video tutorial
Год выпуска: 2011
Производитель: By Alexandr
Продолжительность: 3:51мин
Тип раздаваемого материала: .mp4
Язык: Любительский. Одноголосный. Англиский
ID : 1
Format : AVC
Format/Info : Advanced Video Codec
Format profile : High@L3.1
Format settings, CABAC : Yes
Format settings, ReFrames : 4 frames
Format settings, GOP : M=5, N=45
Codec ID : avc1
Codec ID/Info : Advanced Video Coding
Duration : 3mn 51s
Bit rate mode : Variable
Bit rate : 480 Kbps
Maximum bit rate : 1 784 Kbps
Width : 1 280 pixels
Height : 768 pixels
Display aspect ratio : 1.667
Frame rate mode : Constant
Frame rate : 15.000 fps
Color space : YUV
Chroma subsampling : 4:2:0
Bit depth : 8 bits
Scan type : Progressive
Bits/(Pixel*Frame) : 0.033
Stream size : 13.2 MiB (81%)
Writing library : x264 core 72 r1217 5e9ae4c
Encoding settings : cabac=1 / ref=4 / deblock=1:0:0 / analyse=0x3:0x113 / me=hex / subme=7 / psy=1 / psy_rd=1.0:0.0 / mixed_ref=1 / me_range=16 / chroma_me=1 / trellis=1 / 8x8dct=1 / cqm=0 / deadzone=21,11 / chroma_qp_offset=-2 / threads=8 / nr=0 / decimate=1 / mbaff=0 / bframes=4 / b_pyramid=0 / b_adapt=1 / b_bias=0 / direct=3 / wpredb=1 / keyint=45 / keyint_min=15 / scenecut=40 / rc_lookahead=40 / rc=2pass / mbtree=1 / bitrate=480 / ratetol=1.0 / qcomp=0.60 / qpmin=10 / qpmax=51 / qpstep=4 / cplxblur=20.0 / qblur=0.5 / vbv_maxrate=720 / vbv_bufsize=2400 / ip_ratio=1.40 / aq=1:1.00
Encoded date : UTC 2009-10-11 13:52:21
Tagged date : UTC 2009-10-11 13:52:22
ID : 2
Format : AAC
Format/Info : Advanced Audio Codec
Format profile : LC
Codec ID : 40
Duration : 3mn 51s
Bit rate mode : Variable
Bit rate : 109 Kbps
Maximum bit rate : 126 Kbps
Channel(s) : 2 channels
Channel positions : Front: L R
Sampling rate : 44.1 KHz
Compression mode : Lossy
Stream size : 3.00 MiB (19%)
Encoded date : UTC 2009-10-11 13:52:22
Tagged date : UTC 2009-10-11 13:52:22
Этот урок для HQ plants vol.1 для Cinema4D объясняет, как установить (обратить внимание сюда:) и использовать продукт наиболее эффективным способом.
Модели кустов и деревьев было специально создано для использования VRAYforC4D.
HQ Plants Vol. 1 for VRAYforC4D and Advanced.mp4
За спасибо - пожалуйста)))



Скачать HQ.plants.video.tutorial.[ENG].torrent без регистрации
Золото ЗОЛОТАЯ РАЗДАЧА! СКАЧАННОЕ НЕ ЗАСЧИТЫВАЕТСЯ! Золото
Дата: Зарегистрирован   [ Тип: внутренний ] Как тут cкачать?
MAGNET ссылка
MAGNET ссылка


Скачать .torrent

6 KB

Статус: проверено DHT
Скачан: торрент - 99 раз, раздача полностью - 5 раз
Размер: 16 MB
Оценка:  - (Голосов: 0)
Поблагодарили: 0
Поделиться ссылкой на эту раздачу с друзьями:
В контактеFacebookОдноклассникиTwitterLivejournalМой МирLiveinternet
 

 
Показать сообщения:    


Вы не можете начинать темы
Вы не можете отвечать на сообщения
Вы не можете редактировать свои сообщения
Вы не можете удалять свои сообщения
Вы не можете голосовать в опросах
Вы не можете прикреплять файлы к сообщениям
Вы можете скачивать файлы