Loading...
Error

Скачать Видеоуроки FinalRender [2009 г.] торрент без регистрации

 
Статистика раздачи
Размер:  653 MB   |    Скачан:  105 раз
Сидов:  1  [  0 KB/s  ]  
 
Автор Сообщение

Moln!a

[] 

Видеоуроки по FinalRender
Год выпуска: 2009
Язык: английский

Обновите торрент!!!!
Добавлено 4 урока!!!

Описание:
Format : Flash Video
File size : 15.4 MiB
Duration : 4mn 51s
Overall bit rate : 442 Kbps
Tagged date : UTC 2008-06-12 22:20:55
Writing application : Riva FLV Encoder
Tagging application : inlet media - FLVTool2
Video
Format : H.263
Duration : 4mn 51s
Bit rate : 371 Kbps
Width : 900 pixels
Height : 560 pixels
Display aspect ratio : 1.607
Frame rate : 15.000 fps
Bits/(Pixel*Frame) : 0.049
Stream size : 13.0 MiB (84%)
Audio
Format : MPEG Audio
Format version : Version 2
Format profile : Layer 3
Duration : 4mn 51s
Bit rate mode : Constant
Bit rate : 64.0 Kbps
Channel(s) : 1 channel
Sampling rate : 22.05 KHz
Resolution : 16 bits
Video delay : 26ms
Stream size : 2.35 MiB (15%)
Видео кодек: Flash



Скачать Видеоуроки.FinalRender.[2009.г.].torrent без регистрации
Золото ЗОЛОТАЯ РАЗДАЧА! СКАЧАННОЕ НЕ ЗАСЧИТЫВАЕТСЯ! Золото
Дата: Зарегистрирован   [ Тип: внутренний ] Как тут cкачать?
MAGNET ссылка
MAGNET ссылка


Скачать .torrent

14 KB

Статус: проверено DHT
Скачан: торрент - 105 раз, раздача полностью - 23 раз
Размер: 653 MB
Оценка:  - (Голосов: 0)
Поблагодарили: 0
Поделиться ссылкой на эту раздачу с друзьями:
В контактеFacebookОдноклассникиTwitterLivejournalМой МирLiveinternet
 

 
Показать сообщения:    


Вы не можете начинать темы
Вы не можете отвечать на сообщения
Вы не можете редактировать свои сообщения
Вы не можете удалять свои сообщения
Вы не можете голосовать в опросах
Вы не можете прикреплять файлы к сообщениям
Вы можете скачивать файлы