Loading...
Error

Скачать [3D Fluff] Photorealism Volume 1 – Training for CINEMA 4D R12 [2010, ENG] торрент без регистрации

 
Статистика раздачи
Размер:  1,35 GB   |    Скачан:  112 раз
Сидов:  1  [  0 KB/s  ]  
 
Автор Сообщение

Moln!a

[] 

Photorealism Volume 1
Training for CINEMA 4D R12
Год выпуска: 2010
Производитель: 3D Fluff
Сайт производителя: http://www.3dfluff.com/
Автор: Janine Pauke
Тип раздаваемого материала: Видеоурок
Язык: Английский
Продолжительность: 03:04:05
Описание: With the help of this 3 hour long set of videos, presented by Janine Pauke of 3D Fluff, you will learn how to effortlessly produce photorealistic and great looking product renders with CINEMA 4D Release 12. A large part of the tutorial requires only CINEMA 4D Prime to complete, and you will end up with a completed project and a convincing product render using only those basic tools. The videos will then take you through additional features such as global illumination, HDRI and cloth to arrive at a genuinely photorealistic result.
With an emphasis on photorealism, the videos cover an entire project from start to finish since even in the modeling phase there are important things to watch out for. The smallest details can make or break an image and the illusion that what the viewer is looking at might actually be a photo.
The difficulty level of this product is intermediate and assumes a basic level of knowledge of CINEMA 4D. No in-depth knowledge required.
С помощью этого 3 часа долго множество видео, представленные Джанин Pauke 3D-Пух, вы узнаете, как легко производить фотореалистичных и красивого продукта оказывает с CINEMA 4D Release 12. Большая часть учебника требует только CINEMA 4D премьер завершить, и вы в конечном итоге с завершенного проекта и убедительно сделать продукт, используя только те основные инструменты. видео будет считать вас через дополнительные функции, такие как глобальное освещение, HDRI и ткани, чтобы прийти к действительно фотореалистичных результат.
С акцентом на фотореализм, видео крышку весь проект от начала до конца, поскольку даже в фазе моделирования Есть важные вещи, чтобы не упустить. мельчайших деталей может сделать перерыв или изображения и иллюзия, что зритель смотрит на самом деле может быть фотография.
Уровень сложности этого продукта является промежуточным и предполагает базовый уровень знаний CINEMA 4D. Нет глубоких знаний требуется.
* Setting up CINEMA 4D
* New lighting & rendering features in R12 (including IES and LWF)
* Modeling
* Texturing
* Simple lighting
* Cloth
* GI and HDRI
* Extra tips
* Project files and bonus content on the disc
Видео
Идентификатор : 2
Формат : AVC
Формат/Информация : Advanced Video Codec
Профиль формата : Main@L4.0
Параметр CABAC формата : Нет
Параметр ReFrames формата : 2 кадры
Идентификатор кодека : avc1
Идентификатор кодека/Информация : Advanced Video Coding
Продолжительность : 1 ч. 4 м.
Вид битрейта : Переменный
Битрейт : 961 Кбит/сек
Ширина : 1440 пикс.
Высота : 900 пикс.
Соотношение сторон : 1,600
Режим частоты кадров : Постоянный
Частота кадров : 30,000 кадр/сек
Цветовое пространство : YUV
Подвыборка цветности : 4:2:0
Битовая глубина : 8 бит
Тип развёртки : Прогрессивная
Бит/(Пиксели*Кадры) : 0.025
Размер потока : 443 Мбайт (90%)
Язык : English
Дата кодирования : UTC 2010-09-21 17:35:38
Дата пометки : UTC 2010-09-21 20:21:14
Основные цвета : BT.709-5, BT.1361, IEC 61966-2-4, SMPTE RP177
Характеристики трансфера : BT.709-5, BT.1361
Коэффициенты матрицы : BT.709-5, BT.1361, IEC 61966-2-4 709, SMPTE RP177
Аудио
Идентификатор : 1
Формат : AAC
Формат/Информация : Advanced Audio Codec
Профиль формата : LC
Идентификатор кодека : 40
Продолжительность : 1 ч. 4 м.
Вид битрейта : Постоянный
Битрейт : 101 Кбит/сек
Номинальный битрейт : 128 Кбит/сек
Канал(ы) : 1 канал
Расположение каналов : Front: C
Частота : 48,0 КГц
Метод сжатия : С потерями
Размер потока : 46,7 Мбайт (9%)
Язык : English
Дата кодирования : UTC 2010-09-21 17:35:38
Дата пометки : UTC 2010-09-21 20:21:14



Скачать Photorealism.Volume.1.–.Training.for.CINEMA.4D.R12.[2010.ENG].torrent без регистрации
Золото ЗОЛОТАЯ РАЗДАЧА! СКАЧАННОЕ НЕ ЗАСЧИТЫВАЕТСЯ! Золото
Дата: Зарегистрирован   [ Тип: внутренний ] Как тут cкачать?
MAGNET ссылка
MAGNET ссылка


Скачать .torrent

20 KB

Статус: проверено DHT
Скачан: торрент - 112 раз, раздача полностью - 4 раз
Размер: 1,35 GB
Оценка:  - (Голосов: 0)
Поблагодарили: 0
Поделиться ссылкой на эту раздачу с друзьями:
В контактеFacebookОдноклассникиTwitterLivejournalМой МирLiveinternet
 

 
Показать сообщения:    


Вы не можете начинать темы
Вы не можете отвечать на сообщения
Вы не можете редактировать свои сообщения
Вы не можете удалять свои сообщения
Вы не можете голосовать в опросах
Вы не можете прикреплять файлы к сообщениям
Вы можете скачивать файлы