Loading...
Error

Blender DVD training - Blenderella, Character Modeling in Blender 2.5 [2011, ENG]

 
7,81 GB   |    :  179
1  [  0 KB/s  ]  
 

Moln!a

[] 

Blender DVD training - Blenderella, Character Modeling in Blender 2.5
: 2011
: http://www.blender3d.org/
: Angela Guenette
: ~6.
:
:
: Polygon Modeling Techniques with Focus on Topology: 100% quad polygon modeling. No sculpt, no triangles.
Created by Angela Guenette, Character Modeler, project Durian, Sintel
Angela has a background in fine arts and since 2000 worked on a variety of CG Animated Feature Films, DVD Movies, Television Series, and most recently the independent animated short film, Sintel. She has worked in Blender, Maya, XSI, Softimage3D, Gimp, and Photoshop. Some of her professional credits include Everyones Hero, Spider-Man: The New Animated Series, Popeyes Voyage, Barbie on Swan Lake, Barbie as Rapunzel, Barbie in the Nutcracker, Max Steel, Heavy Gear.
In this DVD, Angela Guenette walks you through her approach on modeling a character within Blender 2.5. She demonstrates the tools used in Blender and techniques on how to create efficient topology with clean edge flow. This will facilitate the creation of facial and body deformations for rigging and animation use.
:

:

General
Unique ID : 182425528023933290125903280621844074650 (0x893DE0F2C212A7B9781378721F96909A)
Complete name : E:\graphics\Blender\Blender DVD training - Blenderella\01_01_Head.MKV
Format : Matroska
Format version : Version 2
File size : 111 MiB
Duration : 5mn 57s
Overall bit rate : 2 607 Kbps
Writing application : Lavf52.61.0
Writing library : Lavf52.61.0
Video
ID : 1
Format : Theora
Codec ID : V_THEORA
Duration : 5mn 57s
Bit rate : 2 475 Kbps
Nominal bit rate : 3 000 Kbps
Width : 1 440 pixels
Height : 900 pixels
Display aspect ratio : 1.600
Frame rate : 15.000 fps
Compression mode : Lossy
Bits/(Pixel*Frame) : 0.127
Stream size : 105 MiB (95%)
Writing library : Xiph.Org libtheora 1.1 20090822 (Thusnelda)
Language : English
Audio
ID : 2
Format : MPEG Audio
Format version : Version 1
Format profile : Layer 3
Mode : Joint stereo
Mode extension : MS Stereo
Codec ID : A_MPEG/L3
Codec ID/Hint : MP3
Duration : 5mn 57s
Bit rate mode : Constant
Bit rate : 80.0 Kbps
Channel(s) : 2 channels
Sampling rate : 44.1 KHz
Compression mode : Lossy
Stream size : 3.41 MiB (3%)
Writing library : LAME3.98.4
Language : English
Summary of Contents:
01 - Preparing Reference Images in Gimp01_Head
02_Body
03_Hand02 - Modeling the Head01_Eyeball and Cornea
02_Setting Up Background Images
03_Eye Socket Blocking
04_Nose Blocking
05_Mouth Blocking
06_Eyeball Fitting
07_Eye Socket Detailing
08_Mouth Detailing
09_Nose Detailing
10_Cheeks, Jaw, Forehead, Scalp
11_Neck
12_Shaping
13_Ear
14_Final Shaping
15_Geometry Eyelashes03 - Modeling the Body01_Setting Up Background Images
02_Torso
03_Pelvis
04_Leg
05_Arm
06_Fingers
07_Hand and Thumb
08_Rest Pose04 - Modeling the Geometry Hair01_Base
02_Strands05 - Modeling the Clothing01_Pants
02_Shirt
03_Boot
04_Masking Under Clothing
05_Shirt2 and Corset
06_Boot Detailing
07_Corset Detailing
08_Pants Finishing06 - Wrap Up01_Wrap Up



Blender.DVD.training.-.Blenderella.Character.Modeling.in.Blender.2.5.[2011.ENG].torrent
  ! ! 
:   [ : ] c?
MAGNET
MAGNET


.torrent

43 KB

: DHT
: - 179 , - 272
: 7,81 GB
- (: 0)
: 0
:
 FacebookTwitterLivejournal Liveinternet
 

 
: