Loading...
Error

Скачать [cmiVFX] Houdini Caustics [2009, ENG] торрент без регистрации

 
Статистика раздачи
Размер:  234 MB   |    Скачан:  111 раз
Сидов:  1  [  0 KB/s  ]  
 
Автор Сообщение

Moln!a

[] 

Houdini Caustics
Год выпуска: 2009
Производитель: cmiVFX
Сайт производителя: http://www.cmivfx.com/tutorials/view/207/Houdini+Caustics
Автор: Georges NAKHLE
Продолжительность: 1:07:39
Тип раздаваемого материала: Видеоурок
Язык: Английский
Описание: This is another great cmiDirect release. All about caustics with reference materials. Learn how Houdini handles this area and delve deep into some scientific explanations of why it is designed this way.
Setting Up
Knowing how to setup the scene is a very critical step to get good refractions and reflections, then after that caustics, so first you will learn how and why to setup the scene the way it is, and how to define the interior and exterior of your surfaces.
Materials
Understanding the creation of refractive materials for the water and the glass objects are the soul of a proper caustic effect, so you`ll learn it and assign them to their corresponding objects.
Photons
In real life they are the main actor behind all the lights we see and interact with. To be able to create caustics first of all, photons have to be shot into the scene. here you will learn how to shoot the photons into the scene and how to visualize them.
Optimizations
Now that the photons are in the scene, in this part other textures and materials will be assigned, then those photons will be used to create caustics either by using the Micropolygon, raytracing or the PBR engine. then optimization and improvements techniques will be discussed.
About The Author
Georges Nakhle, lebanese, and has a masters degree in mechanical engineering. he has a wide artistic and scientific knowledge, he began his art steps with traditional painting and sculpting then gained a diploma in dramatic monologue (acting -singing), he has worked as a writer and perfomer in radio and TV. combining arts and science led him to CG, so he mastered many tools including Maya and Houdini among others, he's also a programmer so he's currently working for Dassault Systemes in Paris-France and he had also worked in combination between Dassault-Systemes and Mental Images the makers of mental-ray. He is very picky about the details and he believes that every small detail contributes to the finished product.
Файлы примеров: присутствуют
Формат видео: MP4
Видео: MPEG4 Video, (H264), 1040x592, (16:9), 286 Kbps, 14.960 fps
Аудио: AAC, 132.3 Kbps, 48000Hz, mono
General
Format : MPEG-4
Format profile : Base Media / Version 2
Codec ID : mp42
Overall bit rate : 424 Kbps
Video #1
ID : 1
Format : AVC
Format/Info : Advanced Video Codec
Format profile : High@L3.1
Format settings, CABAC : No
Format settings, ReFrames : 2 frames
Codec ID : avc1
Codec ID/Info : Advanced Video Coding
Bit rate mode : Variable
Bit rate : 286 Kbps
Width : 1 040 pixels
Height : 592 pixels
Display aspect ratio : 16:9
Frame rate mode : Variable
Frame rate : 14.960 fps
Original frame rate : 14.926 fps
Minimum frame rate : 7.575 fps
Maximum frame rate : 15.625 fps
Color space : YUV
Chroma subsampling : 4:2:0
Bit depth : 8 bits
Scan type : Progressive
Bits/(Pixel*Frame) : 0.031
Stream size : 138 MiB (67%)
Writing library : x264 core 79 r1347 5ddd61b
Audio #2
ID : 2
Format : AAC
Format/Info : Advanced Audio Codec
Format version : Version 4
Format profile : LC
Format settings, SBR : No
Format settings, PS : Yes
Codec ID : 40
Duration : 1h 7mn
Bit rate mode : Variable
Bit rate : 132.3 Kbps
Maximum bit rate : 240 Kbps
Channel(s) : 2 channels
Channel positions : Front: L R
Sampling rate : 48.0 KHz
Stream size : 65.2 MiB (32%)
Language : English



Скачать Houdini.Caustics.[2009.ENG].torrent без регистрации
Золото ЗОЛОТАЯ РАЗДАЧА! СКАЧАННОЕ НЕ ЗАСЧИТЫВАЕТСЯ! Золото
Дата: Зарегистрирован   [ Тип: внутренний ] Как тут cкачать?
MAGNET ссылка
MAGNET ссылка


Скачать .torrent

19 KB

Статус: проверено DHT
Скачан: торрент - 111 раз, раздача полностью - 2 раз
Размер: 234 MB
Оценка:  - (Голосов: 0)
Поблагодарили: 0
Поделиться ссылкой на эту раздачу с друзьями:
В контактеFacebookОдноклассникиTwitterLivejournalМой МирLiveinternet
 

 
Показать сообщения:    


Вы не можете начинать темы
Вы не можете отвечать на сообщения
Вы не можете редактировать свои сообщения
Вы не можете удалять свои сообщения
Вы не можете голосовать в опросах
Вы не можете прикреплять файлы к сообщениям
Вы можете скачивать файлы