Loading...
Error

Скачать [Luxology] modo 501 Spotlight [2010, ENG] торрент без регистрации

 
Статистика раздачи
Размер:  225 MB   |    Скачан:  116 раз
Сидов:  1  [  0 KB/s  ]  
 
Автор Сообщение

Moln!a

[] 

modo 501 Spotlight
Год выпуска: 2010
Производитель: Luxology
Сайт производителя: Luxology LLC
Продолжительность: 01:04:05
Тип раздаваемого материала: Видеоурок
Язык: Английский
Описание: Видео по моделингу, скульптингу и анимации в modo 501 от Энди Брауна.
В раздаче представлены 3 ролика на темы:
» Utilizing Pixar Subdivision Surfaces in modo 501
» Developing rigged systems using the nodal schematic interface in modo 501
» Multi-Rez Workflow in modo 501
Файлы примеров: присутствуют
Формат видео: MOV
Видео: AVC 1, 1280x720, 16:9
Аудио: AAC, 2 channels, 22.05 kHz
Отчеты MediaInfo:
General
Complete name : E:\torrents\Soft\Training Guides\Modo\modo 501 Spotlight\501Spotlight_PSUB.mov
Format : MPEG-4
Format profile : QuickTime
Codec ID : qt
File size : 92.5 MiB
Duration : 24mn 3s
Overall bit rate : 537 Kbps
Encoded date : UTC 2010-12-05 13:25:25
Tagged date : UTC 2010-12-05 14:01:36
Writing library : Apple QuickTime
Video
ID : 1
Format : AVC
Format/Info : Advanced Video Codec
Format profile : Main@L3.1
Format settings, CABAC : No
Format settings, ReFrames : 2 frames
Codec ID : avc1
Codec ID/Info : Advanced Video Coding
Duration : 24mn 3s
Bit rate mode : Variable
Bit rate : 436 Kbps
Width : 1 248 pixels
Original width : 1 280 pixels
Height : 702 pixels
Original height : 720 pixels
Display aspect ratio : 16:9
Frame rate mode : Constant
Frame rate : 10.000 fps
Color space : YUV
Chroma subsampling : 4:2:0
Bit depth : 8 bits
Scan type : Progressive
Bits/(Pixel*Frame) : 0.050
Stream size : 75.1 MiB (81%)
Language : English
Encoded date : UTC 2010-12-05 13:52:27
Tagged date : UTC 2010-12-05 14:01:36
Color primaries : BT.709-5, BT.1361, IEC 61966-2-4, SMPTE RP177
Transfer characteristics : BT.709-5, BT.1361
Matrix coefficients : BT.709-5, BT.1361, IEC 61966-2-4 709, SMPTE RP177
Audio
ID : 2
Format : AAC
Format/Info : Advanced Audio Codec
Format profile : LC
Codec ID : 40
Duration : 24mn 1s
Bit rate mode : Constant
Bit rate : 98.7 Kbps
Nominal bit rate : 128 Kbps
Channel(s) : 2 channels
Channel positions : Front: L R
Sampling rate : 22.05 KHz
Compression mode : Lossy
Stream size : 17.0 MiB (18%)
Language : English
Encoded date : UTC 2010-12-05 13:52:28
Tagged date : UTC 2010-12-05 14:01:36
General
Complete name : E:\torrents\Soft\Training Guides\Modo\modo 501 Spotlight\501Spotlight_Schema.mov
Format : MPEG-4
Format profile : QuickTime
Codec ID : qt
File size : 44.0 MiB
Duration : 22mn 54s
Overall bit rate : 269 Kbps
Encoded date : UTC 2010-12-07 14:33:51
Tagged date : UTC 2010-12-07 15:13:40
Writing library : Apple QuickTime
Video
ID : 1
Format : AVC
Format/Info : Advanced Video Codec
Format profile : Main@L3.1
Format settings, CABAC : No
Format settings, ReFrames : 2 frames
Codec ID : avc1
Codec ID/Info : Advanced Video Coding
Duration : 22mn 54s
Bit rate mode : Variable
Bit rate : 166 Kbps
Width : 1 248 pixels
Original width : 1 280 pixels
Height : 702 pixels
Original height : 720 pixels
Display aspect ratio : 16:9
Frame rate mode : Constant
Frame rate : 10.000 fps
Color space : YUV
Chroma subsampling : 4:2:0
Bit depth : 8 bits
Scan type : Progressive
Bits/(Pixel*Frame) : 0.019
Stream size : 27.3 MiB (62%)
Language : English
Encoded date : UTC 2010-12-07 15:04:26
Tagged date : UTC 2010-12-07 15:13:40
Color primaries : BT.709-5, BT.1361, IEC 61966-2-4, SMPTE RP177
Transfer characteristics : BT.709-5, BT.1361
Matrix coefficients : BT.709-5, BT.1361, IEC 61966-2-4 709, SMPTE RP177
Audio
ID : 2
Format : AAC
Format/Info : Advanced Audio Codec
Format profile : LC
Codec ID : 40
Duration : 22mn 53s
Bit rate mode : Constant
Bit rate : 99.9 Kbps
Nominal bit rate : 128 Kbps
Channel(s) : 2 channels
Channel positions : Front: L R
Sampling rate : 22.05 KHz
Compression mode : Lossy
Stream size : 16.4 MiB (37%)
Language : English
Encoded date : UTC 2010-12-07 15:04:26
Tagged date : UTC 2010-12-07 15:13:40
General
Complete name : E:\torrents\Soft\Training Guides\Modo\modo 501 Spotlight\501Spotlight_Sculpting.mov
Format : MPEG-4
Format profile : QuickTime
Codec ID : qt
File size : 37.5 MiB
Duration : 17mn 8s
Overall bit rate : 306 Kbps
Encoded date : UTC 2010-12-05 12:19:40
Tagged date : UTC 2010-12-05 12:48:17
Writing library : Apple QuickTime
Video
ID : 1
Format : AVC
Format/Info : Advanced Video Codec
Format profile : Main@L3.1
Format settings, CABAC : No
Format settings, ReFrames : 2 frames
Codec ID : avc1
Codec ID/Info : Advanced Video Coding
Duration : 17mn 8s
Bit rate mode : Variable
Bit rate : 205 Kbps
Width : 1 248 pixels
Original width : 1 280 pixels
Height : 702 pixels
Original height : 720 pixels
Display aspect ratio : 16:9
Frame rate mode : Constant
Frame rate : 10.000 fps
Color space : YUV
Chroma subsampling : 4:2:0
Bit depth : 8 bits
Scan type : Progressive
Bits/(Pixel*Frame) : 0.023
Stream size : 25.2 MiB (67%)
Language : English
Encoded date : UTC 2010-12-05 12:42:23
Tagged date : UTC 2010-12-05 12:48:17
Color primaries : BT.709-5, BT.1361, IEC 61966-2-4, SMPTE RP177
Transfer characteristics : BT.709-5, BT.1361
Matrix coefficients : BT.709-5, BT.1361, IEC 61966-2-4 709, SMPTE RP177
Audio
ID : 2
Format : AAC
Format/Info : Advanced Audio Codec
Format profile : LC
Codec ID : 40
Duration : 17mn 7s
Bit rate mode : Constant
Bit rate : 98.2 Kbps
Nominal bit rate : 128 Kbps
Channel(s) : 2 channels
Channel positions : Front: L R
Sampling rate : 22.05 KHz
Compression mode : Lossy
Stream size : 12.0 MiB (32%)
Language : English
Encoded date : UTC 2010-12-05 12:42:23
Tagged date : UTC 2010-12-05 12:48:17




Скачать modo.501.Spotlight.[2010.ENG].torrent без регистрации
Золото ЗОЛОТАЯ РАЗДАЧА! СКАЧАННОЕ НЕ ЗАСЧИТЫВАЕТСЯ! Золото
Дата: Зарегистрирован   [ Тип: внутренний ] Как тут cкачать?
MAGNET ссылка
MAGNET ссылка


Скачать .torrent

19 KB

Статус: проверено DHT
Скачан: торрент - 116 раз, раздача полностью - 11 раз
Размер: 225 MB
Оценка:  - (Голосов: 0)
Поблагодарили: 0
Поделиться ссылкой на эту раздачу с друзьями:
В контактеFacebookОдноклассникиTwitterLivejournalМой МирLiveinternet
 

 
Показать сообщения:    


Вы не можете начинать темы
Вы не можете отвечать на сообщения
Вы не можете редактировать свои сообщения
Вы не можете удалять свои сообщения
Вы не можете голосовать в опросах
Вы не можете прикреплять файлы к сообщениям
Вы можете скачивать файлы