Loading...
Error

Скачать Lotus Born [2009, ENG] торрент без регистрации

 
Статистика раздачи
Размер:  5,18 GB   |    Скачан:  112 раз
Сидов:  1  [  0 KB/s  ]  
 
Автор Сообщение

Moln!a

[] 

Lotus Born by Daniel Arnold-Mist
Год выпуска: 2009
Сайт производителя: http://store.itsartmag.com/iastore/catalogue.php?exp=67|&cat=97
Автор: Daniel Arnold-Mist
Продолжительность: 5:10:04
Тип раздаваемого материала: Видеоурок
Язык: Английский
Описание: Lotus Born : 5 hours Maya Modeling by Daniel Arnold mist
Daniel Arnold-Mist - Expose 7 Master Award Winner - presents a detailed modeling tutorial on the creation of his Lotus Born / Equilibrium images renowned for their incredible detail and originality. Within this tutorial Daniel explains step by step the techniques required to create his mind numbingly detailed images using Autodesk Maya. Not one vertex move or extrusion is missed.
With over 5 hours of tuition packed full of useful techniques you'll be creating your own masterpieces in no time!
In tutorial using Autodesk Maya for modeling and Autodesk 3Ds Max for rendering.
Lotus Born : 5 часов Майского моделинга с Даниэль Арнольд-Мист.
Даниэль Арнольд-Мист - семикратный победитель Master Award представляет вам урок по созданию своего Lotus Born, известного своей невероятной детализацией и оригинальностью.
В этом уроке Даниил шаг за шагом объясняет методы создания головы с помощью Autodesk Maya.
Вы не пропустите ни одного перемещения вертекса или экструда. В этом уроке используется: для моделирования Autodesk Maya, для визуализации Autodesk 3Ds Max.
Part 1 Introduction
Part 2 Reference
Part 3 Shell
Part 4 Big Wires
Part 5 Small Wires
Part 6 Refine Shell
Part 7 Internal Structure
Part 8 Tubes And Eyes
Part 9 Gears
Part 10 Screws Nthings
Part 11 Fanal Parts
Part 12 Rendering
Формат видео: MOV
Видео: MPEG2 CoreAVC Video Decoder, 1280x1024, (5:4), 1 952 Kbps, 24 fps
Аудио: MPC-HC ACC, 44100Hz, mono, 706kbps
General
Format : MPEG-4
Format profile : QuickTime
Codec ID : qt
Overall bit rate : 2 021 Kbps
Encoded date : UTC 2009-05-05 03:43:07
Tagged date : UTC 2009-05-05 03:43:24
Writing library : Apple QuickTime
Video #2
ID : 2
Format : AVC
Format/Info : Advanced Video Codec
Format profile : Main@L4.1
Format settings, CABAC : No
Format settings, ReFrames : 2 frames
Format settings, GOP : M=2, N=32
Codec ID : avc1
Codec ID/Info : Advanced Video Coding
Bit rate mode : Variable
Bit rate : 1 952 Kbps
Width : 1 280 pixels
Height : 1 024 pixels
Display aspect ratio : 5:4
Frame rate mode : Constant
Frame rate : 24.000 fps
Color space : YUV
Chroma subsampling : 4:2:0
Bit depth : 8 bits
Scan type : Progressive
Bits/(Pixel*Frame) : 0.062
Stream size : 383 MiB (97%)
Language : English
Audio #1
ID : 1
Format : AAC
Format/Info : Advanced Audio Codec
Format version : Version 4
Format profile : LC
Format settings, SBR : No
Format settings, PS : Yes
Codec ID : 40
Bit rate mode : Constant
Bit rate : 64.0 Kbps
Channel(s) : 2 channels
Channel positions : Front: L R
Sampling rate : 44.1 KHz
Stream size : 12.5 MiB (3%)
Language : English



Скачать Lotus.Born.[2009.ENG].torrent без регистрации
Золото ЗОЛОТАЯ РАЗДАЧА! СКАЧАННОЕ НЕ ЗАСЧИТЫВАЕТСЯ! Золото
Дата: Зарегистрирован   [ Тип: внутренний ] Как тут cкачать?
MAGNET ссылка
MAGNET ссылка


Скачать .torrent

27 KB

Статус: проверено DHT
Скачан: торрент - 112 раз, раздача полностью - 21 раз
Размер: 5,18 GB
Оценка:  - (Голосов: 0)
Поблагодарили: 0
Поделиться ссылкой на эту раздачу с друзьями:
В контактеFacebookОдноклассникиTwitterLivejournalМой МирLiveinternet
 

 
Показать сообщения:    


Вы не можете начинать темы
Вы не можете отвечать на сообщения
Вы не можете редактировать свои сообщения
Вы не можете удалять свои сообщения
Вы не можете голосовать в опросах
Вы не можете прикреплять файлы к сообщениям
Вы можете скачивать файлы