Loading...
Error

Скачать [Video Tutorial] HQ Grass vol 1 for Cinema4D [2011, UK] торрент без регистрации

 
Статистика раздачи
Размер:  82 MB   |    Скачан:  124 раза

Полного источника не было: 28 минут

 
Автор Сообщение

Moln!a

[] 

HQ Grass vol_1 for Cinema4D video tutorial
Год выпуска: 2011
Производитель: _vrayc4d.com
Продолжительность: 14:22мин
Тип раздаваемого материала: .mp4
Язык: Профессиональный. Одноголосный. Англиский
Формат видео: HQ Video 1280x720
Видео:
ID : 1
Format : AVC
Format/Info : Advanced Video Codec
Format profile : High@L3.1
Format settings, CABAC : Yes
Format settings, ReFrames : 4 frames
Format settings, GOP : M=1, N=45
Codec ID : avc1
Codec ID/Info : Advanced Video Coding
Duration : 14mn 22s
Bit rate mode : Variable
Bit rate : 698 Kbps
Maximum bit rate : 4 278 Kbps
Width : 1 280 pixels
Height : 720 pixels
Display aspect ratio : 16:9
Frame rate mode : Constant
Frame rate : 15.000 fps
Color space : YUV
Chroma subsampling : 4:2:0
Bit depth : 8 bits
Scan type : Progressive
Bits/(Pixel*Frame) : 0.050
Stream size : 71.8 MiB (88%)
Writing library : Vimeo Encoder
Encoded date : UTC 2010-12-09 20:44:15
Tagged date : UTC 2010-12-09 20:44:16
Аудио[:
ID : 2
Format : AAC
Format/Info : Advanced Audio Codec
Format profile : LC
Codec ID : 40
Duration : 14mn 22s
Bit rate mode : Variable
Bit rate : 96.0 Kbps
Maximum bit rate : 127 Kbps
Channel(s) : 2 channels
Channel positions : Front: L R
Sampling rate : 44.1 KHz
Compression mode : Lossy
Stream size : 9.88 MiB (12%)
Encoded date : UTC 2010-12-09 20:44:16
Tagged date : UTC 2010-12-09 20:44:16
Этот урок для HQ Grass vol.1 для Cinema4D объясняет, как установить и использовать продукт наиболее эффективным способом.
Модели трав и цветов было специально создано для использования с Advanced Render 3, VRAYforC4D, они также могут быть использованы с любыми другим прогдамами с которыми работают в Cinema4D (например Maxwell Render или FryRender)
HQ Grass Tutorial.mp4
За спасибо - пожалуйста)))



Скачать HQ.Grass.vol.1.for.Cinema4D.[2011.UK].torrent без регистрации
Золото ЗОЛОТАЯ РАЗДАЧА! СКАЧАННОЕ НЕ ЗАСЧИТЫВАЕТСЯ! Золото
Дата: Зарегистрирован   [ Тип: внутренний ] Как тут cкачать?
MAGNET ссылка
MAGNET ссылка


Скачать .torrent

13 KB

Статус: проверено DHT
Скачан: торрент - 124 раз, раздача полностью - 21 раз
Размер: 82 MB
Оценка:  - (Голосов: 0)
Поблагодарили: 0
Поделиться ссылкой на эту раздачу с друзьями:
В контактеFacebookОдноклассникиTwitterLivejournalМой МирLiveinternet
 

 
Показать сообщения:    


Вы не можете начинать темы
Вы не можете отвечать на сообщения
Вы не можете редактировать свои сообщения
Вы не можете удалять свои сообщения
Вы не можете голосовать в опросах
Вы не можете прикреплять файлы к сообщениям
Вы можете скачивать файлы