Loading...
Error

Скачать Менталист / The Mentalist (04x01-07) (Бруно Хеллер ) [2011, драма, криминал, детектив, HDTVRip] [720p] [MysticOracle] торрент без регистрации

 
Статистика раздачи
Размер:  6,26 GB   |    Скачан:  167 раз
Сидов:  1  [  0 KB/s  ]  
 
Автор Сообщение

МихаНЕзатор

[] 

Информация о фильме
Название: Менталист
Оригинальное название: The Mentalist
Год выхода: 2011
Жанр: драма, криминал, детектив
Автор идеи: Бруно Хеллер /Bruno Heller/

В ролях: Саймон Бейкер /Simon Baker/, Робин Танни /Robin Tunney/, Тим Кенг /Tim Kang/, Овайн Йомэн /Owain Yeoman/, Аманда Риджетти /Amanda Righetti/

О фильме:
Патрик Джейн детектив и независимый консультант из Калифорнийского Бюро Расследований (КБР), он использует свои отточенные, как лезвие, навыки наблюдения для раскрытия тяжких преступлений. В самом Бюро Джейн известен за частые нарушения протокола, а также за его звездное прошлое: он работал медиумом, однако теперь сам признает, что симулировал паранормальные способности. Роль Джейна в раскрытии целой серии загадочных преступлений высоко ценится коллегами. Но суровый старший агент Тереза Лисбон против того, чтоб Джейн работал с ее отрядом, и то вынужденно признает его успехи, то критикует его за театральность, нарциссизм и отсутствие границ.

Страна: США
Студия: Warner Bros. Television / Primrose Hill Productions
Продолжительность: ~42 min.
Перевод: Сообщество NotaBenoid.com
Озвучивание (1): Любительский (двухголосый, закадровый) от MysticOracle (Mr.Ouija & Jagger)
Озвучивание (2): Оригинал
Язык: Русский

Файл
Кодек: H.264
Качество: HDTVRip 720p
Видео: 1280‡720 (16:9), 23.976 fps, x264, 2034 kbps
Звук: 48 kHz, AAC 6 ch, 384.00 kbps cbr

СКАЧАТЬ ВИДЕО СЭМПЛ [MegaUpload]

Внимание: Раздача обновлена (08.11.2011)!!! ДОБАВЛЕНА 7 СЕРИЯ - ПЕРЕКАЧАЙТЕ ТОРРЕНТ-ФАЙЛ !!!
Внимание! Раздача ведётся путём добавления новых серий; при каждом добавлении создётся новый торрент. Чтобы начать докачку новой серии, пользователям необходимо сделать следующее:
(1) остановить скачивание,
(2) удалить старый торрент у себя из клиента (старые серии удалять не надо),
(3) скачать новый торрент и запустить его у себя в клиенте вместо старого, при этом указать клиенту путь в старую папку куда и должно происходить скачивание новых серий.
Ваш клиент при этом должен произвести хеширование (проверку) старой папки (если не производит сам - помогите ему сделать это), и будет докачивать только те серии которых у вас ещё нет. Старые серии при этом не удаляются, а продолжают раздаваться!
Eсли вы уже удалили старые серии, то предотвратить повторную закачку старых серий можно, отжав галочку в соответсвующих местах при запуске нового торрента. По возможности, желательно не удалять старые серии как можно дольше чтобы релизёр не столько продолжал раздавать старые серии, а смог сконцентрироваться на новых.
22.09.2011: 01-Scarlet Ribbons (Алые ленты)
29.09.2011: 02-Little Red Book (Маленькая красная книжка)
06.10.2011: 03-Pretty Red Balloon (Красивый красный шар)
13.10.2011: 04-Ring Around the Rosie (Кольцо вокруг Рози)

20.10.2011: 05-Blood and Sand (Кровь и песок)
General
Unique ID : 236993371838122668524359504550798917427 (0xB24B435D6F01C46BB7739F2A69B17F33)
Complete name : Z:uTThe.Mentalist.S04.720p.RUS.HDTV.x264-MysticOracleThe.Mentalist.S04E01.720p.RUS.HDTV.x264-MysticOracle.mkv
Format : Matroska
File size : 863 MiB
Duration : 42mn 13s
Overall bit rate : 2 859 Kbps
Encoded date : UTC 2011-10-02 20:34:30
Writing application : mkvmerge v4.9.1 ('Ich will') сборка от Jul 11 2011 23:53:15
Writing library : libebml v1.2.1 + libmatroska v1.1.1

Video
ID : 1
Format : AVC
Format/Info : Advanced Video Codec
Format profile : High@L3.1
Format settings, CABAC : Yes
Format settings, ReFrames : 5 frames
Muxing mode : Header stripping
Codec ID : V_MPEG4/ISO/AVC
Duration : 42mn 13s
Bit rate : 2 034 Kbps
Width : 1 280 pixels
Height : 720 pixels
Display aspect ratio : 16:9
Frame rate : 23.976 fps
Color space : YUV
Chroma subsampling : 4:2:0
Bit depth : 8 bits
Scan type : Progressive
Bits/(Pixel*Frame) : 0.092
Stream size : 614 MiB (71%)
Writing library : x264 core 116 r2074 2641b9e
Encoding settings : cabac=1 / ref=5 / deblock=1:0:0 / analyse=0x3:0x113 / me=umh / subme=8 / psy=1 / psy_rd=1.00:0.00 / mixed_ref=1 / me_range=16 / chroma_me=1 / trellis=1 / 8x8dct=1 / cqm=0 / deadzone=21,11 / fast_pskip=1 / chroma_qp_offset=-2 / threads=18 / sliced_threads=0 / nr=0 / decimate=1 / interlaced=0 / bluray_compat=0 / constrained_intra=0 / bframes=3 / b_pyramid=2 / b_adapt=2 / b_bias=0 / direct=3 / weightb=1 / open_gop=0 / weightp=2 / keyint=250 / keyint_min=23 / scenecut=40 / intra_refresh=0 / rc_lookahead=50 / rc=crf / mbtree=1 / crf=19.0 / qcomp=0.60 / qpmin=0 / qpmax=69 / qpstep=4 / ip_ratio=1.40 / aq=1:1.00

Audio #1
ID : 2
Format : AC-3
Format/Info : Audio Coding 3
Mode extension : CM (complete main)
Muxing mode : Header stripping
Codec ID : A_AC3
Duration : 42mn 13s
Bit rate mode : Constant
Bit rate : 384 Kbps
Channel(s) : 6 channels
Channel positions : Front: L C R, Side: L R, LFE
Sampling rate : 48.0 KHz
Bit depth : 16 bits
Compression mode : Lossy
Stream size : 116 MiB (13%)
Title : MysticOracle (RUS)
Language : Russian

Audio #2
ID : 3
Format : AC-3
Format/Info : Audio Coding 3
Mode extension : CM (complete main)
Muxing mode : Header stripping
Codec ID : A_AC3
Duration : 42mn 13s
Bit rate mode : Constant
Bit rate : 384 Kbps
Channel(s) : 6 channels
Channel positions : Front: L C R, Side: L R, LFE
Sampling rate : 48.0 KHz
Bit depth : 16 bits
Compression mode : Lossy
Stream size : 116 MiB (13%)
Title : Original (ENG)
Language : English



Скачать Менталист.The.Mentalist.(04x01-07).(Бруно.Хеллер.).[2011.драма.криминал.детектив.HDTVRip].[720p].[MysticOracle].torrent без регистрации
Золото ЗОЛОТАЯ РАЗДАЧА! СКАЧАННОЕ НЕ ЗАСЧИТЫВАЕТСЯ! Золото
Дата: Зарегистрирован   [ Тип: внутренний ] Как тут cкачать?
MAGNET ссылка
MAGNET ссылка


Скачать .torrent

32 KB

Статус: проверено DHT
Скачан: торрент - 167 раз, раздача полностью - 4 раз
Размер: 6,26 GB
Оценка:  - (Голосов: 0)
Поблагодарили: 2
Поделиться ссылкой на эту раздачу с друзьями:
В контактеFacebookОдноклассникиTwitterLivejournalМой МирLiveinternet
 

 
Показать сообщения:    


Вы не можете начинать темы
Вы не можете отвечать на сообщения
Вы не можете редактировать свои сообщения
Вы не можете удалять свои сообщения
Вы не можете голосовать в опросах
Вы не можете прикреплять файлы к сообщениям
Вы можете скачивать файлы