Loading...
Error

Скачать Мерлин / Merlin / Сезон: 4 / Серии: 1 (13) (Джулиан Джонс, Джейк Мичи, Джони Капс, Джулиан Мерфи) [2011, Фэнтези, Драма, Семейный, HDTVRip] (BaibaKo) торрент без регистрации

 
Статистика раздачи
Размер:  520 MB   |    Скачан:  165 раз
Сидов:  1  [  0 KB/s  ]  
 
Автор Сообщение

Moln!a

[] 



Мерлин / Merlin


Год выпуска: 2011
Страна: Великобритания
Жанр: Фэнтези, Драма, Семейный
Продолжительность: ~ 42 минуты
Перевод: Профессиональный (многоголосный закадровый) - BaibaKo
Субтитры: Нет
Режиссёр: Джулиан Джонс, Джейк Мичи, Джони Капс, Джулиан Мерфи
В ролях: Колин Морган, Энджел Колби, Брэдли Джеймс, Кэти МакГратт, Энтони Хед и Ричард Уилсон и др.
Описание: Угроза, исходящая от Морганы, может уничтожить не только будущее Артура, но и нарушить мировой баланс. Занавес между мирами разрывается. Отродье тьмы врывается в Камелот, убивая всех на своем пути. Защитить королевство пытаются Артур и его рыцари. Но для победы одной лишь силы мечей мало. Чтобы восстановить равновесие миров, Мерлину придется пойти на большую жертву ...
Качество: HDTVRip
Формат: AVI
Видео кодек: XviD
Аудио кодек: MP3
Видео: 720x400 (16:9), 25.000 fps, ~1280 kbps, ~0.18 bit/pixel
Аудио: 48 kHz, 2 ch, ~192 kbps /Baibako/
Аудио: 48 kHz, 2 ch, ~192 kbps /Original/
специально для
Перевод: Татьяна Saavick
Озвучка: Светлана Доманова, Anna_Smile, Алексей Кузнецов, Trinitron и Александр Фурман.
Обложка: tvblog
/ Сэмпл / ImDB / Кинопоиск
The Darkest Hour part 1 / Самый тёмный час ч.1
Общее
Полное имя : F:\Merlin.s04e01.HDTVRip.Rus-Eng.BaibaKo.tv.avi
Формат : AVI
Формат/Информация : Audio Video Interleave
Размер файла : 520 Мбайт
Продолжительность : 43 м.
Общий поток : 1676 Кбит/сек
Программа кодирования : VirtualDubMod 1.5.10.2 (build 2540/release)
Библиотека кодирования : VirtualDubMod build 2540/release
Видео

Идентификатор : 0
Формат : MPEG-4 Visual
Профиль формата : Advanced Simple@L5
Параметр BVOP формата : 2
Параметр QPel формата : Нет
Параметр GMC формата : Без точки перехода
Параметр матрицы формата : Default (H.263)
Режим смешивания : Сжатый битовый поток
Идентификатор кодека : XVID
Идентификатор кодека/Подсказка : XviD
Продолжительность : 43 м.
Битрейт : 1278 Кбит/сек
Ширина : 720 пикс.
Высота : 400 пикс.
Соотношение сторон : 16:9
Частота кадров : 25,000 кадр/сек
Цветовое пространство : YUV
Подвыборка цветности : 4:2:0
Битовая глубина : 8 бит
Тип развёртки : Прогрессивная
Метод сжатия : С потерями
Бит/(Пиксели*Кадры) : 0.177
Размер потока : 396 Мбайт (76%)
Библиотека кодирования : XviD 1.2.1 (UTC 2008-12-04)
Аудио #1
Идентификатор : 1
Формат : MPEG Audio
Версия формата : Version 1
Профиль формата : Layer 3
Режим : Joint stereo
Идентификатор кодека : 55
Идентификатор кодека/Подсказка : MP3
Продолжительность : 43 м.
Вид битрейта : Постоянный
Битрейт : 192 Кбит/сек
Каналы : 2 канала
Частота : 48,0 КГц
Метод сжатия : С потерями
Размер потока : 59,5 Мбайт (11%)
Выравнивание : Соединение по промежуткам
Продолжительность промежутка : 40 мс. (1,00 видеокадр)
Время предзагрузки промежутка : 504 ms
Аудио #2
Идентификатор : 2
Формат : MPEG Audio
Версия формата : Version 1
Профиль формата : Layer 3
Режим : Joint stereo
Расширение режима : MS Stereo
Идентификатор кодека : 55
Идентификатор кодека/Подсказка : MP3
Продолжительность : 43 м.
Вид битрейта : Постоянный
Битрейт : 192 Кбит/сек
Каналы : 2 канала
Частота : 48,0 КГц
Метод сжатия : С потерями
Размер потока : 59,5 Мбайт (11%)
Выравнивание : Соединение по промежуткам
Продолжительность промежутка : 40 мс. (1,00 видеокадр)
Время предзагрузки промежутка : 504 ms
Внимание! Раздача ведётся путём добавления новых серий; при каждом добавлении создётся новый торрент. Чтобы начать докачку новой серии, пользователям необходимо сделать следующее:

1) остановить скачивание,
2) удалить старый торрент у себя из клиента (старые серии удалять не надо),
3) скачать новый торрент и запустить его у себя в клиенте вместо старого, при этом указать клиенту путь в старую папку куда и должно происходить скачивание новых серий.
Ваш клиент при этом должен произвести хеширование (проверку) старой папки (если не производит сам - помогите ему сделать это), и будет докачивать только те серии которых у вас ещё нет. Старые серии при этом не удаляются, а продолжают раздаваться!
Eсли вы уже удалили старые серии, то предотвратить повторную закачку старых серий можно, отжав галочку в соответсвующих местах при запуске нового торрента.

[align=center] [/font]



Скачать Мерлин.Merlin.Сезон.4.Серии.1.(13).(Джулиан.Джонс.Джейк.Мичи.Джони.Капс.Джулиан.Мерфи).[2011.Фэнтези.Драма.Семейный.HDTVRip].(BaibaKo).torrent без регистрации
Золото ЗОЛОТАЯ РАЗДАЧА! СКАЧАННОЕ НЕ ЗАСЧИТЫВАЕТСЯ! Золото
Дата: Зарегистрирован   [ Тип: внутренний ] Как тут cкачать?
MAGNET ссылка
MAGNET ссылка


Скачать .torrent

11 KB

Статус: проверено DHT
Скачан: торрент - 165 раз, раздача полностью - 41 раз
Размер: 520 MB
Оценка:  5 (Голосов: 1)
Поблагодарили: 1
Поделиться ссылкой на эту раздачу с друзьями:
В контактеFacebookОдноклассникиTwitterLivejournalМой МирLiveinternet
 

 
Показать сообщения:    


Вы не можете начинать темы
Вы не можете отвечать на сообщения
Вы не можете редактировать свои сообщения
Вы не можете удалять свои сообщения
Вы не можете голосовать в опросах
Вы не можете прикреплять файлы к сообщениям
Вы можете скачивать файлы