Loading...
Error

Скачать Одежда для убийцы /Бритва / Dressed to Killv (Брайан Де Пальма) [1980, HDRip] [FREEISLAND] торрент без регистрации

 
Статистика раздачи
Размер:  1,6 GB   |    Скачан:  129 раз
Сидов:  1  [  0 KB/s  ]  
 
Автор Сообщение

Marsianka

[] 



Информация о фильме
Название: Одежда для убийцы /Бритва
Оригинальное название: Dressed to Kill
Год выхода: 1980
Жанр: триллер, детектив
Режиссер: Брайан Де Пальма
В ролях: Майкл Кейн, Энджи Дикинсон, Нэнси Аллен, Кит Гордон, Деннис Франц, Дэвид Маргулис, Кен Бэйкер, Сюзанна Клемм, Брэндон Мэггарт, Амалия Колье

О фильме:
Она называет себя Бобби высокая блондинка с ненасытным желанием убивать. Согласно записям доктора Эллиота, Бобби была его пациенткой, но перешла к другому врачу. Острая бритва, которая служит Бобби орудием убийства, была украдена из роскошного кабинета доктора Эллиота в престижном районе Нью-Йорка, в котором он ведет свою успешную психиатрическую практику.Очередной жертвой Бобби становится Кейт, другая пациентка доктора Эллиота, страдавшая от столь ярких эротических фантазий, что сама порой не могла отделить их от реальности. Лиз, девушка из высшего общества, случайно становится свидетельницей этого преступления, сразу же превратившись в объект преследования для убийцы и в подозреваемую для полиции. Только она сможет пролить свет на тайну высокой блондинки, если, конечно, ей удастся остаться в живых.



Страна: США
Студия: Cinema 77 Films, Filmways Pictures
Продолжительность: 01:45:00
Перевод: Профессиональный (двухголосый , закадровый)

Файл
Кодек: H.264
Качество: HDRip
Видео: English, 1668 Кбит/сек, 720*304 (2,35:1), в 23,976 кадр/сек, AVC (High@L4.1)
Звук:
Russian, 192 Кбит/сек, 48,0 КГц, 16 бит, 2 канала(ов), AC-3
English, 320 Кбит/сек, 48,0 КГц, 16 бит, 6 канала(ов), AC-3

Общее
Уникальный идентификатор : 209316281063786310534172385413239207885 (0x9D78D96F51D077B5925D1B1722ECF7CD)
Полное имя : E:торрентDressed to Kill (1980)HDRip.mkv.mkv
Формат : Matroska
Размер файла : 1,60 Гбайт
Продолжительность : 1 ч. 45 м.
Общий поток : 2182 Кбит/сек
Дата кодирования : UTC 2011-09-20 03:38:01
Программа кодирования : mkvmerge v4.9.1 ('Ich will') built on Jul 11 2011 23:53:15
Библиотека кодирования : libebml v1.2.1 + libmatroska v1.1.1

Видео
Идентификатор : 1
Формат : AVC
Формат/Информация : Advanced Video Codec
Профиль формата : High@L4.1
Параметр CABAC формата : Да
Параметр ReFrames формата : 9 кадры
Идентификатор кодека : V_MPEG4/ISO/AVC
Продолжительность : 1 ч. 45 м.
Битрейт : 1668 Кбит/сек
Ширина : 720 пикс.
Высота : 304 пикс.
Соотношение сторон : 2,35:1
Частота кадров : 23,976 кадр/сек
Цветовое пространство : YUV
Подвыборка цветности : 4:2:0
Битовая глубина : 8 бит
Тип развёртки : Прогрессивная
Бит/(Пиксели*Кадры) : 0.318
Размер потока : 1,19 Гбайт (75%)
Библиотека кодирования : x264 core 116 r2074 2641b9e
Настройки программы : cabac=1 / ref=9 / deblock=1:-3:-3 / analyse=0x3:0x133 / me=umh / subme=9 / psy=1 / psy_rd=1.00:0.18 / mixed_ref=1 / me_range=32 / chroma_me=1 / trellis=2 / 8x8dct=1 / cqm=0 / deadzone=21,11 / fast_pskip=0 / chroma_qp_offset=-3 / threads=6 / sliced_threads=0 / nr=0 / decimate=1 / interlaced=0 / bluray_compat=0 / constrained_intra=0 / bframes=7 / b_pyramid=2 / b_adapt=2 / b_bias=0 / direct=3 / weightb=1 / open_gop=0 / weightp=2 / keyint=250 / keyint_min=23 / scenecut=40 / intra_refresh=0 / rc=2pass / mbtree=0 / bitrate=1668 / ratetol=1.0 / qcomp=1.00 / qpmin=10 / qpmax=51 / qpstep=4 / cplxblur=20.0 / qblur=0.5 / ip_ratio=1.40 / pb_ratio=1.30 / aq=1:1.00
Язык : English

Аудио #1
Идентификатор : 2
Формат : AC-3
Формат/Информация : Audio Coding 3
Расширение режима : CM (complete main)
Идентификатор кодека : A_AC3
Продолжительность : 1 ч. 45 м.
Вид битрейта : Постоянный
Битрейт : 192 Кбит/сек
Канал(ы) : 2 канала(ов)
Расположение каналов : Front: L R
Частота : 48,0 КГц
Битовая глубина : 16 бит
Метод сжатия : С потерями
Размер потока : 144 Мбайт (9%)
Язык : Russian

Аудио #2
Идентификатор : 3
Формат : AC-3
Формат/Информация : Audio Coding 3
Расширение режима : CM (complete main)
Идентификатор кодека : A_AC3
Продолжительность : 1 ч. 45 м.
Вид битрейта : Постоянный
Битрейт : 320 Кбит/сек
Канал(ы) : 6 канала(ов)
Расположение каналов : Front: L C R, Side: L R, LFE
Частота : 48,0 КГц
Битовая глубина : 16 бит
Метод сжатия : С потерями
Размер потока : 240 Мбайт (15%)
Язык : English
Релиз от:



Скачать Одежда.для.убийцы.Бритва.Dressed.to.Killv.(Брайан.Де.Пальма).[1980.HDRip].[FREEISLAND].torrent без регистрации
Золото ЗОЛОТАЯ РАЗДАЧА! СКАЧАННОЕ НЕ ЗАСЧИТЫВАЕТСЯ! Золото
Дата: Зарегистрирован   [ Тип: внутренний ] Как тут cкачать?
MAGNET ссылка
MAGNET ссылка


Скачать .torrent

16 KB

Статус: проверено DHT
Скачан: торрент - 129 раз, раздача полностью - 0 раз
Размер: 1,6 GB
Оценка:  - (Голосов: 0)
Поблагодарили: 0
Поделиться ссылкой на эту раздачу с друзьями:
В контактеFacebookОдноклассникиTwitterLivejournalМой МирLiveinternet
 

 
Показать сообщения:    


Вы не можете начинать темы
Вы не можете отвечать на сообщения
Вы не можете редактировать свои сообщения
Вы не можете удалять свои сообщения
Вы не можете голосовать в опросах
Вы не можете прикреплять файлы к сообщениям
Вы можете скачивать файлы