Loading...
Error

Скачать Подмена / Changeling (Клинт Иствуд) [2008, триллер, драма, детектив, HDRip] [Лицензия] торрент без регистрации

 
Статистика раздачи
Размер:  787 MB   |    Скачан:  219 раз
Сидов:  1  [  0 KB/s  ]  
 
Автор Сообщение

МихаНЕзатор

[] 

Информация о фильме
Название: Подмена
Оригинальное название: Changeling
Год выхода: 2008
Жанр: триллер, драма, детектив
Режиссер: Клинт Иствуд / Clint Eastwood
В ролях: Анджелина Джоли /Angelina Jolie/, Джон Малкович /John Malkovich/, Гэтлин Гриффит /Gattlin Griffith/, Мишель Мартин /Michelle Martin/, Жан Деверо /Jan Devereaux/, Майкл Келли /Michael Kelly/, Эрика Грант /Erica Grant/

О фильме:
Действие картины развивается в Лос-Анджелесе 20-х годов прошлого столетия. Обратившись в полицию с заявлением об исчезновении ребенка, главная героиня вскоре получает своего сына, но сообщает полицейским, что, несмотря на внешнее сходство, это не ее сын. Вместо помощи несчастная мать получает прописку в палате клиники для сумасшедших



Страна: США
Продолжительность: 02:21:54
Перевод: Профессиональный (полное дублирование) [Лицензия]

Файл
Кодек: XviD / MP3
Качество: HDRip
Видео: XviD, 688x288 (2.35:1), 23.976 fps, 626 Kbps (0.132 bit/pixel)
Звук: MP3, 48.0 KHz, 2 ch, 128 Kbps, CBR
General
Complete name : E:Changeling_HDRip_745_[Rutor.org].avi
Format : AVI
Format/Info : Audio Video Interleave
File size : 787 MiB
Duration : 2h 21mn
Overall bit rate : 776 Kbps
Writing application : VirtualDubMod 1.5.10.2 (build 2540/release)
Writing library : VirtualDubMod build 2540/release

Video
ID : 0
Format : MPEG-4 Visual
Format profile : Advanced Simple@L5
Format settings, BVOP : 1
Format settings, QPel : No
Format settings, GMC : No warppoints
Format settings, Matrix : Custom
Codec ID : XVID
Codec ID/Hint : XviD
Duration : 2h 21mn
Bit rate : 626 Kbps
Width : 688 pixels
Height : 288 pixels
Display aspect ratio : 2.40:1
Frame rate : 23.976 fps
Color space : YUV
Chroma subsampling : 4:2:0
Bit depth : 8 bits
Scan type : Progressive
Compression mode : Lossy
Bits/(Pixel*Frame) : 0.132
Stream size : 619 MiB (79%)
Writing library : XviD 1.2.1 (UTC 2008-12-04)

Audio
ID : 1
Format : MPEG Audio
Format version : Version 1
Format profile : Layer 3
Codec ID : 55
Codec ID/Hint : MP3
Duration : 2h 21mn
Bit rate mode : Constant
Bit rate : 128 Kbps
Channel(s) : 2 channels
Sampling rate : 48.0 KHz
Compression mode : Lossy
Stream size : 127 MiB (16%)
Alignment : Aligned on interleaves
Interleave, duration : 42 ms (1.00 video frame)
Interleave, preload duration : 504 ms



Скачать Подмена.Changeling.(Клинт.Иствуд).[2008.триллер.драма.детектив.HDRip].[Лицензия].torrent без регистрации
Золото ЗОЛОТАЯ РАЗДАЧА! СКАЧАННОЕ НЕ ЗАСЧИТЫВАЕТСЯ! Золото
Дата: Зарегистрирован   [ Тип: внутренний ] Как тут cкачать?
MAGNET ссылка
MAGNET ссылка


Скачать .torrent

16 KB

Статус: проверено DHT
Скачан: торрент - 219 раз, раздача полностью - 284 раз
Размер: 787 MB
Оценка:  5 (Голосов: 1)
Поблагодарили: 4
Поделиться ссылкой на эту раздачу с друзьями:
В контактеFacebookОдноклассникиTwitterLivejournalМой МирLiveinternet
 

 
Показать сообщения:    


Вы не можете начинать темы
Вы не можете отвечать на сообщения
Вы не можете редактировать свои сообщения
Вы не можете удалять свои сообщения
Вы не можете голосовать в опросах
Вы не можете прикреплять файлы к сообщениям
Вы можете скачивать файлы