Loading...
Error

Скачать Обитель Анубиса / House of Anubis (1x1-27 из 27) (Тим Хоупвелл) [2011, Детектив, WEB-DLRip] торрент без регистрации

 
Статистика раздачи
Размер:  8,57 GB   |    Скачан:  211 раз

Полного источника не было: 26 минут

 
Автор Сообщение

oartemka178

[] 

Обитель Анубиса / House of Anubis

Год выпуска: 2011
Страна: США
Жанр: Детектив
Продолжительность:27x 00:22:00
Перевод: полное дублирование
Русские субтитры: нет
Субтитры: отсутствуют
Режиссёр: Тим Хоупвелл
В ролях: Алекс Сойер, Джейд Рэмси, Теси Дхенрадж, Наталиа Рамос, Брэд Кэвэна, Ана Мулвой-Тен, Бобби Локвуд, Юджин Саймон, Катрин Бэйли, Эмилия Джонс
Описание: Нина Мартин — американская девушка, которая жила со своей бабушкой с момента смерти её родителей. Нина была вынуждена переехать в другой город и поступить в элитную школу-интернат «Анубис». Между тем, ещё одна жительница городка и популярная студентка Джой Мерсер, внезапно исчезает без предупреждений. Что за тайны хранить элитная школа названая в честь тёмного божества Анубиса?
Доп. информация: Нумерация серий согласно американским WEB-DL

Релиз:
Качество: WEB-DLRip
Формат: AVI
Видео кодек: XviD
Аудио кодек: AC3
Видео: 720x400 (1.80:1), 29.970 fps, XviD build 50 ~1750 kbps avg, 0.20 bit/pixel
Аудио: 48 kHz, AC3 Dolby Digital, 2/0 (L,R) ch, ~192.00 kbps avg
01 эпизод (серии 1-5) - House of Secrets/House of Attitude/House of the Black Bird/House of Dares/House of Lies
02 эпизод (серии 6-7) - House of Locks/House of Eyes
03 эпизод (серии 8-9) - House of Agendas/House of Keys
04 эпизод (серии 10-11) - House of Discovery/House of Hyper
05 эпизод (серии 12-13) - House of Cheats/House of Rumors
06 эпизод (серии 14-15) - House of Intruders/House of Proof
07 эпизод (серии 16-17) - House of Confrontation/House of Alarms
08 эпизод (серии 18-19) - House of Flames/House of Passages
09 эпизод (серии 20-21) - House of Kidnap/House of Cat-Nap
10 эпизод (серии 22-23) - House of Cameras/House of Numbers
11 эпизод (серии 24-25) - House of Scares/House of Fakers
12 эпизод (серии 26-27) - House of Identity/House of Emergency
13 эпизод (серии 28-29) - House of Reunion/House of Memories
14 эпизод (серии 30-31) - House of Drama/House of Codes

15 эпизод (серии 32-33) - House of Risk/House of Thieves
16 эпизод (серии 34-35) - House of Hazard/House of Charades
17 эпизод (серии 36-37) - House of Rendezvous/House of Rescue
18 эпизод (серии 38-39) - House of Arrest/House of Hoax

19 эпизод (серии 40-41) - House of Time/House of Aliens
20 эпизод (серии 42-43) - House of Masks/House of Pursuit
21 эпизод (серии 44-45) - House of Yesterday/House of Victory

22 эпизод (серии 46-47) - House of Bribes/House of Venom
23 эпизод (серии 48-49) - House of Stars/House of Harsh

24 эпизод (серии 50-51) - House of Lights/House of Allegiance
25 эпизод (серии 52-53) - House of Pests/House of Betrayal
26 эпизод (серии 54-55) - House of Revelation/House of Heavy

27 эпизод (серии 56-60) - House of Hush/House of Spies/House of Sting/House of Never/House of Forever
D:\House.of.Anubis.WEB-DLRip.Rus\House.of.Anubis.1x02.WEB-DLRip.Rus.[www.Riper.AM].avi
General
Complete name : D:\House.of.Anubis.WEB-DLRip.Rus\House.of.Anubis.1x02.WEB-DLRip.Rus.[www.Riper.AM].avi
Format : AVI
Format/Info : Audio Video Interleave
File size : 301 MiB
Duration : 21mn 30s
Overall bit rate : 1 954 Kbps
Writing application : VirtualDubModRus 1.5.10.1 (build 2439/release)
Writing library : VirtualDubMod build 2439/release
Video #0
ID : 0
Format : MPEG-4 Visual
Format profile : Advanced Simple@L5
Format settings, BVOP : 2
Format settings, QPel : No
Format settings, GMC : No warppoints
Format settings, Matrix : Default (H.263)
Codec ID : XVID
Codec ID/Hint : XviD
Duration : 21mn 30s
Bit rate : 1 750 Kbps
Width : 720 pixels
Height : 400 pixels
Display aspect ratio : 16:9
Frame rate : 29.970 fps
Color space : YUV
Chroma subsampling : 4:2:0
Bit depth : 8 bits
Scan type : Progressive
Compression mode : Lossy
Bits/(Pixel*Frame) : 0.203
Stream size : 269 MiB (90%)
Writing library : XviD 1.2.1 (UTC 2008-12-04)
Audio #1
ID : 1
Format : AC-3
Format/Info : Audio Coding 3
Mode extension : CM (complete main)
Codec ID : 2000
Duration : 21mn 30s
Bit rate mode : Constant
Bit rate : 192 Kbps
Channel(s) : 2 channels
Channel positions : Front: L R
Sampling rate : 48.0 KHz
Bit depth : 16 bits
Compression mode : Lossy
Stream size : 29.5 MiB (10%)
Alignment : Split accross interleaves
Interleave, duration : 33 ms (1.00 video frame)
Interleave, preload duration : 500 ms

Раздача мультитрекерная, при нуле сидов (раздающих) можете смело скачивать этот релиз!



Скачать Обитель.Анубиса.House.of.Anubis.(1x1-27.из.27).(Тим.Хоупвелл).[2011.Детектив.WEB-DLRip].torrent без регистрации
Золото ЗОЛОТАЯ РАЗДАЧА! СКАЧАННОЕ НЕ ЗАСЧИТЫВАЕТСЯ! Золото
Дата: Зарегистрирован   [ Тип: внутренний ] Как тут cкачать?
MAGNET ссылка
MAGNET ссылка


Скачать .torrent

46 KB

Статус: проверено DHT
Скачан: торрент - 211 раз, раздача полностью - 83 раз
Размер: 8,57 GB
Оценка:  5 (Голосов: 2)
Поблагодарили: 4
Поделиться ссылкой на эту раздачу с друзьями:
В контактеFacebookОдноклассникиTwitterLivejournalМой МирLiveinternet
 

 
Показать сообщения:    


Вы не можете начинать темы
Вы не можете отвечать на сообщения
Вы не можете редактировать свои сообщения
Вы не можете удалять свои сообщения
Вы не можете голосовать в опросах
Вы не можете прикреплять файлы к сообщениям
Вы можете скачивать файлы