Loading...
Error

Скачать Кортекс / Cortex (Николас Бухриф) [2008 г., триллер, криминал, детектив, DVDRip] торрент без регистрации

 
Статистика раздачи
Размер:  1,46 GB   |    Скачан:  139 раз
Сидов:  1  [  0 KB/s  ]  
 
Автор Сообщение

Shara

[] 

Кортекс / Cortex

Релиз от HQCLUB

Информация о фильме
Название: Кортекс
Оригинальное название: Cortex
Год выхода: 2008
Жанр: триллер, криминал, драма
Режиссер: Николас Бухриф / Nicolas Boukhrief
В ролях: Андре Дюссолье, Марта Келлер, Жюльен Бойсселье, Шанталь Нойвирт, Клер Небу, Клод Перрон, Laure Salama, Паскаль Элбе, Орор Клеман, Жилль Гастон-Дрейфус

О фильме:
Комиссар полиции в отставке Шарль Бойер попадает в лечебницу для душевнобольных. Несмотря на то, что разум старого полицейского поражен болезнью Альцгеймера, его неистребимое профессиональное чутье благодаря недугу обострилось с новой силой.

В клинике, где оказался комиссар Бойер, таинственным образом начинают умирать пациенты, и безошибочный инстинкт сыщика подсказывает герою, что несчастные отправляются на тот свет с чьей-то помощью. И тогда Бойер решает провести собственное расследование…
User Rating: 6.750/10 (79 votes)
Imdb: 6.3/10 ( 301 votes)

Релиз от -
Автор рипа: chopper887

Выпущено: Франция
Продолжительность: 01:40:19
Перевод: Профессиональный (многоголосый, закадровый)
Субтитры: нет

Файл:
Формат: avi
Качество: BDRip (источник: Blu-ray Remux / 1080p)
Видео: 720x400 (16:9), 25,000 fps, 1623 kbps avg,0.225bit/pixel
Аудио: 48 kHz, AC3 Dolby Digital, 3/2 (L,C,R,l,r) + LFE ch, ~448.00 kbps avg
Размер: 1493.81 Mb (1/3 DVD)
Скачать: Семпл
General
Complete name : J:\Cortex.2008.RUS.BDRip.XviD.AC3.-HQCLUB.avi
Format : AVI
Format/Info : Audio Video Interleave
File size : 1.46 GiB
Duration : 1h 40mn
Overall bit rate : 2 080 Kbps
Writing application : VirtualDubMod 1.5.10.2 (build 2540/release)
Writing library : VirtualDubMod build 2540/release

Video
ID : 0
Format : MPEG-4 Visual
Format profile : Advanced Simple@L5
Format settings, BVOP : Yes
Format settings, QPel : No
Format settings, GMC : No warppoints
Format settings, Matrix : Custom
Codec ID : XVID
Codec ID/Hint : XviD
Duration : 1h 40mn
Bit rate : 1 623 Kbps
Width : 720 pixels
Height : 400 pixels
Display aspect ratio : 16:9
Frame rate : 25.000 fps
Resolution : 8 bits
Colorimetry : 4:2:0
Scan type : Progressive
Bits/(Pixel*Frame) : 0.225
Stream size : 1.14 GiB (78%)
Writing library : XviD 1.2.1 (UTC 2008-12-04)

Audio
ID : 1
Format : AC-3
Format/Info : Audio Coding 3
Codec ID : 2000
Duration : 1h 40mn
Bit rate mode : Constant
Bit rate : 448 Kbps
Channel(s) : 6 channels
Channel positions : Front: L C R, Surround: L R, LFE
Sampling rate : 48.0 KHz
Stream size : 321 MiB (22%)
Alignment : Split accross interleaves
Interleave, duration : 40 ms (1.00 video frame)
Interleave, preload duration : 500 ms



Скачать Кортекс.Cortex.(Николас.Бухриф).[2008.г.триллер.криминал.детектив.DVDRip].torrent без регистрации
Золото ЗОЛОТАЯ РАЗДАЧА! СКАЧАННОЕ НЕ ЗАСЧИТЫВАЕТСЯ! Золото
Дата: Зарегистрирован   [ Тип: внутренний ] Как тут cкачать?
MAGNET ссылка
MAGNET ссылка


Скачать .torrent

15 KB

Статус: проверено DHT
Скачан: торрент - 139 раз, раздача полностью - 11 раз
Размер: 1,46 GB
Оценка:  - (Голосов: 0)
Поблагодарили: 1
Поделиться ссылкой на эту раздачу с друзьями:
В контактеFacebookОдноклассникиTwitterLivejournalМой МирLiveinternet
 

 
Показать сообщения:    


Вы не можете начинать темы
Вы не можете отвечать на сообщения
Вы не можете редактировать свои сообщения
Вы не можете удалять свои сообщения
Вы не можете голосовать в опросах
Вы не можете прикреплять файлы к сообщениям
Вы можете скачивать файлы