Loading...
Error

Скачать Любовь и вымогательство / Love Lies Bleeding (Кейт Сэмплз / Keith Samples) [2008 г., Боевик, триллер, HDTVRip] торрент без регистрации

 
Статистика раздачи
Размер:  1,45 GB   |    Скачан:  235 раз

Полного источника не было: 24 минуты

 
Автор Сообщение

ПАРАДОКС

[] 


Любовь и вымогательство / Love Lies Bleeding



Год выпуска: 2008
Выпущено: США
Жанр: Боевик, триллер
Продолжительность: 01:29:52
Перевод: Профессиональный (многоголосый закадровый)
Cубтитры: Hет

Режиссер: Кейт Сэмплз / Keith Samples

В ролях: Брайан Джерати, Кристиан Слейтер, Дженна Девэн, Джералд Бродин, Джереми Бернелл

Описание: Большие деньги - большие проблемы...
Видимо об этом забыли герои фильма Дьюк и Эмбер - пробивная парочка, случайно напоровшаяся на спортивную сумку до отказа набитую деньгами. Обчистив тайник, они спешно скрываются. Воодушевленные получением средств для реализации своих планов новоиспеченные молодожены придаются романтике дороги.
Внезапно, их эйфория превращается в ночной кошмар, и оборачивается отчаянной борьбой за свою жизнь. Продажный агент наркоконтроля Поллен, лишившийся наживы, буквально впадает в ярость и решает вернуть любой ценой "по праву принадлежавшее ему". Он начинает жестокую погоню non-stop. Скрывающиеся и растерянные молодые люди вызывают подозрение детектива, который призван выяснить, что к чему, пока не стало слишком поздно...



Качество: HDTVRip
Формат: MKV
Видео кодек: H.264
Аудио кодек: AC3
Видео: 1024x432 ,50.000 fps ,H264,1865 kbps
Аудио: 48 kHz, AC3 Dolby Digital, 3/2 (L,C,R,l,r) + LFE ch, ~448 kbps


General
Complete name : F:Love.Lies.Bleeding.chopper887.mkv
Format : Matroska
File size : 1.45 GiB
Duration : 1h 29mn
Overall bit rate : 2 314 Kbps
Movie name : Love.Lies.Bleeding.2008.HDTV
Encoded date : UTC 2010-08-23 15:09:19
Writing application : mkvmerge v3.0.0 ('Hang up your Hang-Ups') built on Dec 12 2009 15:20:35
Writing library : libebml v0.7.9 + libmatroska v0.8.1

Video
ID : 1
Format : AVC
Format/Info : Advanced Video Codec
Format profile : High@L4.1
Format settings, CABAC : Yes
Format settings, ReFrames : 7 frames
Muxing mode : Container profile=Unknown@4.1
Codec ID : V_MPEG4/ISO/AVC
Duration : 1h 29mn
Bit rate : 1 865 Kbps
Width : 1 024 pixels
Height : 432 pixels
Display aspect ratio : 2.35:1
Frame rate : 50.000 fps
Color space : YUV
Chroma subsampling : 4:2:0
Bit depth : 8 bits
Scan type : Progressive
Bits/(Pixel*Frame) : 0.084
Stream size : 1.14 GiB (79%)
Title : chopper887
Writing library : x264 core 104 r1677 19df41a
Encoding settings : cabac=1 / ref=7 / deblock=1:-2:-1 / analyse=0x3:0x133 / me=umh / subme=9 / psy=1 / psy_rd=1.00:0.10 / mixed_ref=0 / me_range=32 / chroma_me=1 / trellis=2 / 8x8dct=1 / cqm=0 / deadzone=21,11 / fast_pskip=0 / chroma_qp_offset=-3 / threads=3 / sliced_threads=0 / nr=0 / decimate=1 / interlaced=0 / constrained_intra=0 / bframes=5 / b_pyramid=2 / b_adapt=2 / b_bias=0 / direct=1 / weightb=1 / open_gop=0 / weightp=2 / keyint=250 / keyint_min=25 / scenecut=40 / intra_refresh=0 / rc_lookahead=10 / rc=2pass / mbtree=1 / bitrate=1865 / ratetol=1.0 / qcomp=0.60 / qpmin=10 / qpmax=51 / qpstep=4 / cplxblur=20.0 / qblur=0.5 / ip_ratio=1.40 / aq=1:1.10
Language : English

Audio
ID : 2
Format : AC-3
Format/Info : Audio Coding 3
Mode extension : CM (complete main)
Codec ID : A_AC3
Duration : 1h 29mn
Bit rate mode : Constant
Bit rate : 448 Kbps
Channel(s) : 6 channels
Channel positions : Front: L C R, Side: L R, LFE
Sampling rate : 48.0 KHz
Stream size : 288 MiB (19%)
Title : Многоголосый










Скачать Любовь.и.вымогательство.Love.Lies.Bleeding.(Кейт.Сэмплз.Keith.Samples).[2008.г.Боевик.триллер.HDTVRip].torrent без регистрации
Золото ЗОЛОТАЯ РАЗДАЧА! СКАЧАННОЕ НЕ ЗАСЧИТЫВАЕТСЯ! Золото
Дата: Зарегистрирован   [ Тип: внутренний ] Как тут cкачать?
MAGNET ссылка
MAGNET ссылка


Скачать .torrent

15 KB

Статус: проверено DHT
Скачан: торрент - 235 раз, раздача полностью - 35 раз
Размер: 1,45 GB
Оценка:  - (Голосов: 0)
Поблагодарили: 0
Поделиться ссылкой на эту раздачу с друзьями:
В контактеFacebookОдноклассникиTwitterLivejournalМой МирLiveinternet
 

 

rocky

[] 

Ladies and gentlemen, please connect to the film
Дамы и господа, пожалуйста, подключитесь к фильму.
 
Показать сообщения:    


Вы не можете начинать темы
Вы не можете отвечать на сообщения
Вы не можете редактировать свои сообщения
Вы не можете удалять свои сообщения
Вы не можете голосовать в опросах
Вы не можете прикреплять файлы к сообщениям
Вы можете скачивать файлы