Loading...
Error

Скачать Секреты Лос-Анджелеса / L.A. Confidential (Кёртис Хэнсон / Curtis Hanson) [1997, триллер, драма, криминал, детектив, BDRip] [AVC] [DHT-Movies] торрент без регистрации

 
Статистика раздачи
Размер:  4,38 GB   |    Скачан:  186 раз
Сидов:  1  [  0 KB/s  ]  
 
Автор Сообщение

Marsianka

[] 


&laquoIt's a crime saga that will shock you. It's a mystery that will keep you guessing. It's a thriller that will keep you riveted.»

Год выхода: 1997
Жанр: триллер, драма, криминал, детектив
Страна: США
Продолжительность: 02:17:53
Перевод: Профессиональный (двухголосый, закадровый) Twister (LaserVideo) + Профессиональный (многоголосый, закадровый) Gemini Fox + Авторский (одноголосый, закадровый) В. Яковлев + Авторский (одноголосый, закадровый) А. Гаврилов + Авторский (одноголосый, закадровый) Ю. Живов + Авторский (одноголосый, закадровый) В. Горчаков + Авторский (одноголосый, закадровый) Н. Антонов + Оригинал
Субтитры: русские, английские



Режиссер: Кёртис Хэнсон / Curtis Hanson

В ролях: Рассел Кроу, Гай Пирс, Кевин Спейси, Ким Бейсингер, Джеймс Кромуэлл, Дэвид Стрэтэйрн, Дэнни ДеВито, Грэм Беккел, Пол Гилфойл, Рон Рифкин

О фильме: Добро пожаловать в Лос-Анджелес, с его ярким солнцем, широкими манящими пляжами и процветающей организованной преступностью. Известно даже имя главы преступного мира Микки Коэн. После ареста босса мафии один за другим в мир иной отправляются его помощники, стремившиеся занять освободившееся место Микки.
В битву с преступниками, естественно, вступает знаменитая полиция Лос-Анджелеса. Двое бесстрашных полицейских, расследующих серию убийств, оказываются соперниками не только на работе, но и в постели проститутки из экзотического борделя.

Доп. информация: без доп. дорог фильм весит 2.15 Gb

Качество: BDRip-AVC (Source: BD Remux 1080p / Devlad)
Формат: MKV
Видео кодек: H.264
Аудио кодек: AC3
Видео: 1024x432 (2.37:1), 23.976 fps, MPEG-4 AVC, ~1855 kbps, 0.175 bit/pixel
Аудио (Русский): 48 kHz, AC3 Dolby Digital, 3/2 (L,C,R,l,r) + LFE ch, ~384 kbps | (DVO - Twister (LaserVideo))
Аудио (Русский): 48 kHz, AC3 Dolby Digital, 3/2 (L,C,R,l,r) + LFE ch, ~384 kbps | (MVO - Gemini Fox / отдельно)
Аудио (Русский): 48 kHz, AC3 Dolby Digital, 3/2 (L,C,R,l,r) + LFE ch, ~384 kbps | (AVO - Яковлев / отдельно)
Аудио (Русский): 48 kHz, AC3 Dolby Digital, 3/2 (L,C,R,l,r) + LFE ch, ~384 kbps | (AVO - Гаврилов / отдельно)
Аудио (Русский): 48 kHz, AC3 Dolby Digital, 3/2 (L,C,R,l,r) + LFE ch, ~384 kbps | (AVO - Живов / отдельно)
Аудио (Русский): 48 kHz, AC3 Dolby Digital, 2/0 (L,R) ch, ~192 kbps | (AVO - Горчаков / отдельно)
Аудио (Русский): 48 kHz, AC3 Dolby Digital, 2/0 (L,R) ch, ~192 kbps | (AVO - Антонов / отдельно)
Аудио (Английский): 48 kHz, AC3 Dolby Digital, 3/2 (L,C,R,l,r) + LFE ch, ~384 kbps | (Original / отдельно)
Релиз группы | by capral555

Общее
Формат : Matroska
Версия формата : Version 2
Размер файла : 2,16 Гбайт
Продолжительность : 2 ч. 17 м.
Общий поток : 2241 Кбит/сек
Дата кодирования : UTC 2011-10-21 09:58:47
Программа кодирования : mkvmerge v4.9.1 ('Ich will') сборка от Jul 11 2011 23:53:15
Библиотека кодирования : libebml v1.2.1 + libmatroska v1.1.1

Видео
Идентификатор : 1
Формат : AVC
Формат/Информация : Advanced Video Codec
Профиль формата : High@L4.1
Параметр CABAC формата : Да
Параметр ReFrames формата : 11 кадров
Идентификатор кодека : V_MPEG4/ISO/AVC
Продолжительность : 2 ч. 17 м.
Битрейт : 1855 Кбит/сек
Ширина : 1024 пикселя
Высота : 432 пикселя
Соотношение сторон : 2,35:1
Частота кадров : 23,976 кадра/сек
Цветовое пространство : YUV
Субдискретизация насыщенности : 4:2:0
Битовая глубина : 8 бит
Тип развёртки : Прогрессивная
Бит/(Пиксели*Кадры) : 0.175
Размер потока : 1,75 Гбайт (81%)
Заголовок : 1024x432 (2.37:1), 23.976 fps, 1855 kbps, 0.175 bit/pixel
Библиотека кодирования : x264 core 116 r2074 2641b9e
Настройки программы : cabac=1 / ref=11 / deblock=1:-1:-1 / analyse=0x3:0x113 / me=umh / subme=10 / psy=1 / psy_rd=1.15:0.00 / mixed_ref=1 / me_range=32 / chroma_me=1 / trellis=2 / 8x8dct=1 / cqm=0 / deadzone=21,11 / fast_pskip=1 / chroma_qp_offset=-2 / threads=6 / sliced_threads=0 / nr=0 / decimate=1 / interlaced=0 / bluray_compat=0 / constrained_intra=0 / bframes=9 / b_pyramid=2 / b_adapt=2 / b_bias=0 / direct=2 / weightb=1 / open_gop=0 / weightp=2 / keyint=250 / keyint_min=23 / scenecut=40 / intra_refresh=0 / rc_lookahead=60 / rc=2pass / mbtree=1 / bitrate=1855 / ratetol=1.0 / qcomp=0.60 / qpmin=0 / qpmax=69 / qpstep=4 / cplxblur=20.0 / qblur=0.5 / ip_ratio=1.40 / aq=2:0.65
Язык : English

Аудио
Идентификатор : 2
Формат : AC-3
Формат/Информация : Audio Coding 3
Расширение режима : CM (complete main)
Идентификатор кодека : A_AC3
Продолжительность : 2 ч. 17 м.
Вид битрейта : Постоянный
Битрейт : 384 Кбит/сек
Каналы : 6 каналов
Расположение каналов : Front: L C R, Side: L R, LFE
Частота : 48,0 КГц
Битовая глубина : 16 бит
Метод сжатия : С потерями
Размер потока : 379 Мбайт (17%)
Заголовок : 48 kHz, AC3, 5.1 ch, 384 kbps - DVO (Twister (LaserVideo))
Язык : Russian

Текст #1
Идентификатор : 3
Формат : UTF-8
Идентификатор кодека : S_TEXT/UTF8
Идентификатор кодека/Информация : UTF-8 Plain Text
Заголовок : Русские
Язык : Russian

Текст #2
Идентификатор : 4
Формат : UTF-8
Идентификатор кодека : S_TEXT/UTF8
Идентификатор кодека/Информация : UTF-8 Plain Text
Заголовок : Английские
Язык : English
* Фильм основан на одноименной книге Джеймса Элроя, написанной в 1988-89 годах.
* Настоящее имя Бада - Уэнделл (Wendell).
* Чтобы подготовить актеров к их ролям режиссер Кертис Хэнсон показал им несколько фильмов 50-х годов.
* В качестве дополнительной подготовки Рассел некоторое время ездил с настоящими полицейскими. Но он считает, что это не принесло особой пользы из-за больших различий между работой полицейских в 50-х годах и в 90-х.
* Сначала Расселу совсем не понравился образ Бада Уайта, но по мере подготовки он стал понимать его все больше, что явно помогло ему просто блестяще справиться с этой ролью.



Скачать Секреты.Лос-Анджелеса.L.A.Confidential.(Кёртис.Хэнсон.Curtis.Hanson).[1997.триллер.драма.криминал.детектив.BDRip].[AVC].[DHT-Movies].torrent без регистрации
Золото ЗОЛОТАЯ РАЗДАЧА! СКАЧАННОЕ НЕ ЗАСЧИТЫВАЕТСЯ! Золото
Дата: Зарегистрирован   [ Тип: внутренний ] Как тут cкачать?
MAGNET ссылка
MAGNET ссылка


Скачать .torrent

23 KB

Статус: проверено DHT
Скачан: торрент - 186 раз, раздача полностью - 13 раз
Размер: 4,38 GB
Оценка:  5 (Голосов: 1)
Поблагодарили: 3
Поделиться ссылкой на эту раздачу с друзьями:
В контактеFacebookОдноклассникиTwitterLivejournalМой МирLiveinternet
 

 

leon030982

[] 

отличный фильм ab не то что сейчас снимают полное г.... ag at
 
Показать сообщения:    


Вы не можете начинать темы
Вы не можете отвечать на сообщения
Вы не можете редактировать свои сообщения
Вы не можете удалять свои сообщения
Вы не можете голосовать в опросах
Вы не можете прикреплять файлы к сообщениям
Вы можете скачивать файлы