Loading...
Error

Скачать Невероятные приключения янки в Африке / Yankee Zulu (Грей Хофмайер) [1993, комедия, DVDRip] [MVO] торрент без регистрации

 
Статистика раздачи
Размер:  740 MB   |    Скачан:  614 раз
Сидов:  2  [  0 KB/s  ]  
 
Автор Сообщение

leon030982

[] 

Невероятные приключения янки в Африке / Yankee Zulu


Год выхода: 1993
Страна: ЮАР
Жанр: комедия
Продолжительность: 01:26:01
Перевод: Профессиональный (многоголосый, закадровый)

Режиссер: Грей Хофмайер

В ролях: Леон Шустер, Джон Матшикиза, Уилсон Данстер, Терри Триз, Мишель Боуc

О фильме:
Шалости друзей мальчишек, белого африканера и черного зулу сделали бы честь даже легендарному Кевину из комедии «Один дома».
Жизнь надолго разлучает их, но встретившись через 25 лет, они вспоминают детство похищают полмиллиона долларов и, преобразившись в гримерной телевидения белый в черного, а черный в белого, скрываются от преследователей.



Качество: DVDRip
Формат: AVI
Видео кодек: XviD
Аудио кодек: MP3
Видео: 544x416 (1.31:1), 25 fps, XviD MPEG-4 ~1064 kbps avg, 0.19 bit/pixel
Аудио: 48 kHz, MPEG Layer 3, 2 ch, ~128.00 kbps avg
General
Complete name : E:\INTERNET\Yankee_Zulu.avi
Format : AVI
Format/Info : Audio Video Interleave
File size : 740 MiB
Duration : 1h 26mn
Overall bit rate : 1 203 Kbps
Genre : Comedy
Writing application : VirtualDubMod 1.5.10.2 (build 2540/release)
Original source form/Name : Movie

Video
ID : 0
Format : MPEG-4 Visual
Format profile : Advanced Simple@L5
Format settings, BVOP : 2
Format settings, QPel : No
Format settings, GMC : No warppoints
Format settings, Matrix : Custom
Muxing mode : Packed bitstream
Codec ID : XVID
Codec ID/Hint : XviD
Duration : 1h 26mn
Bit rate : 1 065 Kbps
Width : 544 pixels
Height : 416 pixels
Display aspect ratio : 4:3
Frame rate : 25.000 fps
Color space : YUV
Chroma subsampling : 4:2:0
Bit depth : 8 bits
Scan type : Progressive
Compression mode : Lossy
Bits/(Pixel*Frame) : 0.188
Stream size : 655 MiB (89%)
Writing library : XviD 1.2.1 (UTC 2008-12-04)

Audio
ID : 1
Format : MPEG Audio
Format version : Version 1
Format profile : Layer 3
Mode : Joint stereo
Mode extension : MS Stereo
Codec ID : 55
Codec ID/Hint : MP3
Duration : 1h 26mn
Bit rate mode : Constant
Bit rate : 128 Kbps
Channel(s) : 2 channels
Sampling rate : 48.0 KHz
Compression mode : Lossy
Stream size : 78.8 MiB (11%)
Alignment : Aligned on interleaves
Interleave, duration : 40 ms (1.00 video frame)
Interleave, preload duration : 504 ms
Writing library : LAME3.98r
Encoding settings : -m j -V 4 -q 2 -lowpass 17 -b 128



Скачать Невероятные.приключения.янки.в.Африке.Yankee.Zulu.(Грей.Хофмайер).[1993.комедия.DVDRip].[MVO].torrent без регистрации
Золото ЗОЛОТАЯ РАЗДАЧА! СКАЧАННОЕ НЕ ЗАСЧИТЫВАЕТСЯ! Золото
Дата: Зарегистрирован   [ Тип: внутренний ] Как тут cкачать?
MAGNET ссылка
MAGNET ссылка


Скачать .torrent

15 KB

Статус: проверено DHT
Скачан: торрент - 614 раз, раздача полностью - 305 раз
Размер: 740 MB
Оценка:  5 (Голосов: 1)
Поблагодарили: 6
Поделиться ссылкой на эту раздачу с друзьями:
В контактеFacebookОдноклассникиTwitterLivejournalМой МирLiveinternet
 

 

leon030982

[] 

Обновлено на лучшее качество видео az
 
Показать сообщения:    


Вы не можете начинать темы
Вы не можете отвечать на сообщения
Вы не можете редактировать свои сообщения
Вы не можете удалять свои сообщения
Вы не можете голосовать в опросах
Вы не можете прикреплять файлы к сообщениям
Вы можете скачивать файлы